<?xml version="1.0" standalone="no"?>
<!DOCTYPE svg PUBLIC "-//W3C//DTD SVG 1.1//EN" "http://www.w3.org/Graphics/SVG/1.1/DTD/svg11.dtd" >
<svg xmlns="http://www.w3.org/2000/svg" xmlns:xlink="http://www.w3.org/1999/xlink" version="1.1">
<metadata>
Created by FontForge 20201107 at Fri May  5 11:18:50 2017
 By Unknown
Copyright (c) 2015, Cadson Demak (info@cadsondemak.com)
</metadata>
<defs>
<font id="Mitr-SemiBold" horiz-adv-x="0" >
  <font-face 
    font-family="Mitr SemiBold"
    font-weight="600"
    font-stretch="normal"
    units-per-em="1000"
    panose-1="0 0 7 0 0 0 0 0 0 0"
    ascent="750"
    descent="-250"
    x-height="480"
    cap-height="680"
    bbox="-661 -422 1375 1097"
    underline-thickness="50"
    underline-position="-100"
    unicode-range="U+000D-FB02"
  />
<missing-glyph horiz-adv-x="536" 
d="M62 714h411v-714h-411v714zM422 51v612h-309v-612h309z" />
    <glyph glyph-name="fi" unicode="fi" horiz-adv-x="608" 
d="M96.5 12q-11.5 12 -11.5 38v292h-34q-28 0 -38 11.5t-10 38.5v38q0 27 10 38.5t38 11.5h34v13q0 96 61.5 149t173.5 53t174 -44q12 -9 12 -18q0 -7 -6 -16l-37 -63q-7 -11 -16 -11q-2 0 -14 4q-30 16 -64 16q-43 0 -64.5 -18t-21.5 -51v-14h229q29 0 41 -12.5t12 -38.5
v-379q0 -26 -12 -38t-41 -12h-93q-29 0 -41 12t-12 38v292h-83v-292q0 -26 -12 -38t-41 -12h-93q-29 0 -40.5 12z" />
    <glyph glyph-name="fl" unicode="fl" horiz-adv-x="612" 
d="M96.5 12q-11.5 12 -11.5 38v292h-34q-28 0 -38 11.5t-10 38.5v38q0 27 10 38.5t38 11.5h34v13q0 96 62 149t174 53q135 0 217 -54q18 -11 24.5 -22t6.5 -34v-535q0 -26 -12 -38t-41 -12h-93q-29 0 -41 12t-12 38v292h-87v-292q0 -26 -12 -38t-41 -12h-93q-29 0 -40.5 12z
M376 480v66q-13 9 -43 9q-26 0 -40.5 -16.5t-14.5 -44.5v-14h98z" />
    <glyph glyph-name="ru_lakkhangyaothai" unicode="&#xe24;&#xe45;" horiz-adv-x="912" 
d="M401 -144q-12 12 -12 38v422q0 41 -16.5 60t-55.5 19q-55 0 -85 -22l11 -19q7 -13 10 -25.5t3 -30.5v-133q0 -12 3 -15.5t11 -3.5h20q17 0 22 -6t5 -25v-79q0 -18 -5.5 -25.5t-18 -9t-42.5 -1.5h-137q-61 0 -61 63v260l-21 53q-9 22 -9 37q0 18 18 33q46 39 120 66.5
t157 27.5q90 0 162 -34q68 34 159 34q117 0 173.5 -50t56.5 -154v-448q0 -44 -46 -44h-111q-46 0 -46 44v433q0 41 -16 58t-52 17q-18 0 -25 -3q19 -31 19 -81v-418q0 -26 -12 -38t-41 -12h-97q-29 0 -41 12z" />
    <glyph glyph-name="lu_lakkhangyaothai" unicode="&#xe26;&#xe45;" horiz-adv-x="917" 
d="M406 -144.5q-11 11.5 -11 38.5v422q0 41 -17 60t-55 19q-50 0 -82 -21l17 -24q11 -16 14.5 -29.5t3.5 -41.5v-230q0 -26 -10 -37.5t-37 -11.5h-179q-20 0 -27 8t-7 28v81q0 18 6.5 23.5t22.5 5.5h18q7 0 8.5 7t1.5 19v147l-36 57q-9 14 -9 37q0 18 18 33q46 39 120 66.5
t157 27.5q90 0 162 -36q69 36 159 36q117 0 173.5 -50t56.5 -154v-448q0 -44 -46 -44h-111q-46 0 -46 44v433q0 41 -16 58t-52 17q-16 0 -21 -1q16 -36 16 -81v-420q0 -27 -11 -38.5t-40 -11.5h-101q-29 0 -40 11.5z" />
    <glyph glyph-name=".notdef" horiz-adv-x="536" 
d="M62 714h411v-714h-411v714zM422 51v612h-309v-612h309z" />
    <glyph glyph-name=".null" 
 />
    <glyph glyph-name="nonmarkingreturn" unicode="&#xd;" horiz-adv-x="330" 
 />
    <glyph glyph-name="space" unicode=" " horiz-adv-x="330" 
 />
    <glyph glyph-name="A" unicode="A" horiz-adv-x="747" 
d="M23 18q0 8 5 20l254 608q8 19 17.5 26.5t28.5 7.5h91q19 0 28.5 -7.5t17.5 -26.5l254 -608q5 -12 5 -19q0 -9 -5.5 -14t-15.5 -5h-155q-14 0 -22 5.5t-13 18.5l-35 96h-210l-34 -96q-5 -13 -13 -18.5t-23 -5.5h-154q-21 0 -21 18zM434 256l-61 170l-61 -170h122z" />
    <glyph glyph-name="Aacute" unicode="&#xc1;" horiz-adv-x="747" 
d="M285 742q0 8 3 15l44 121q7 20 16.5 27t35.5 7h120q18 0 28.5 -6.5t10.5 -18.5q0 -11 -7 -22l-65 -115q-12 -20 -23 -26.5t-40 -6.5h-89q-34 0 -34 25zM23 18q0 8 5 20l254 608q8 19 17.5 26.5t28.5 7.5h91q19 0 28.5 -7.5t17.5 -26.5l254 -608q5 -12 5 -19
q0 -9 -5.5 -14t-15.5 -5h-155q-14 0 -22 5.5t-13 18.5l-35 96h-210l-34 -96q-5 -13 -13 -18.5t-23 -5.5h-154q-21 0 -21 18zM434 256l-61 170l-61 -170h122z" />
    <glyph glyph-name="Abreve" unicode="&#x102;" horiz-adv-x="747" 
d="M232.5 792q-48.5 48 -48.5 125q0 8 4.5 13t11.5 5h108q10 0 13.5 -4.5t3.5 -14.5q0 -49 48 -49t48 49q0 10 3.5 14.5t13.5 4.5h108q7 0 11.5 -5t4.5 -13q0 -77 -49 -125t-140 -48q-92 0 -140.5 48zM23 18q0 8 5 20l254 608q8 19 17.5 26.5t28.5 7.5h91q19 0 28.5 -7.5
t17.5 -26.5l254 -608q5 -12 5 -19q0 -9 -5.5 -14t-15.5 -5h-155q-14 0 -22 5.5t-13 18.5l-35 96h-210l-34 -96q-5 -13 -13 -18.5t-23 -5.5h-154q-21 0 -21 18zM434 256l-61 170l-61 -170h122z" />
    <glyph glyph-name="uni1EAE" unicode="&#x1eae;" horiz-adv-x="747" 
d="M319 920q0 6 3 13l33 93q6 17 13 21.5t28 4.5h70q25 0 25 -17q0 -8 -6 -20l-46 -87q-9 -15 -16 -19.5t-23 -4.5h-59q-22 0 -22 16zM234 771.5q-50 44.5 -50 113.5q0 8 4.5 13t11.5 5h91q10 0 13.5 -4.5t3.5 -14.5q0 -50 65 -50t65 50q0 10 3.5 14.5t13.5 4.5h91
q7 0 11.5 -5t4.5 -13q0 -45 -22.5 -80.5t-65 -56.5t-101.5 -21q-89 0 -139 44.5zM23 18q0 8 5 20l254 608q8 19 17.5 26.5t28.5 7.5h91q19 0 28.5 -7.5t17.5 -26.5l254 -608q5 -12 5 -19q0 -9 -5.5 -14t-15.5 -5h-155q-14 0 -22 5.5t-13 18.5l-35 96h-210l-34 -96
q-5 -13 -13 -18.5t-23 -5.5h-154q-21 0 -21 18zM434 256l-61 170l-61 -170h122z" />
    <glyph glyph-name="uni1EB6" unicode="&#x1eb6;" horiz-adv-x="747" 
d="M232.5 780q-48.5 48 -48.5 125q0 8 4.5 13t11.5 5h108q10 0 13.5 -4.5t3.5 -14.5q0 -49 48 -49t48 49q0 10 3.5 14.5t13.5 4.5h108q7 0 11.5 -5t4.5 -13q0 -77 -49 -125t-140 -48q-92 0 -140.5 48zM23 18q0 8 5 20l254 608q8 19 17.5 26.5t28.5 7.5h91q19 0 28.5 -7.5
t17.5 -26.5l254 -608q5 -12 5 -19q0 -9 -5.5 -14t-15.5 -5h-155q-14 0 -22 5.5t-13 18.5l-35 96h-210l-34 -96q-5 -13 -13 -18.5t-23 -5.5h-154q-21 0 -21 18zM434 256l-61 170l-61 -170h122zM317.5 -187.5q-17.5 18.5 -17.5 45.5v25q0 27 17.5 45.5t43.5 18.5h27
q27 0 44 -18.5t17 -45.5v-25q0 -27 -17 -45.5t-44 -18.5h-27q-26 0 -43.5 18.5z" />
    <glyph glyph-name="uni1EB0" unicode="&#x1eb0;" horiz-adv-x="747" 
d="M322 905q-7 5 -15 19l-47 87q-6 12 -6 20q0 17 26 17h70q22 0 28 -4.5t12 -21.5l33 -93q3 -7 3 -14q0 -15 -21 -15h-60q-16 0 -23 5zM234 767.5q-50 44.5 -50 113.5q0 8 4.5 13t11.5 5h91q10 0 13.5 -4.5t3.5 -14.5q0 -50 65 -50t65 50q0 10 3.5 14.5t13.5 4.5h91
q7 0 11.5 -5t4.5 -13q0 -69 -50 -113.5t-139 -44.5t-139 44.5zM23 18q0 8 5 20l254 608q8 19 17.5 26.5t28.5 7.5h91q19 0 28.5 -7.5t17.5 -26.5l254 -608q5 -12 5 -19q0 -9 -5.5 -14t-15.5 -5h-155q-14 0 -22 5.5t-13 18.5l-35 96h-210l-34 -96q-5 -13 -13 -18.5t-23 -5.5
h-154q-21 0 -21 18zM434 256l-61 170l-61 -170h122z" />
    <glyph glyph-name="uni1EB2" unicode="&#x1eb2;" horiz-adv-x="747" 
d="M322 892v34q0 13 6 18.5t21 5.5q17 0 24.5 4t7.5 14q0 16 -23 16q-27 0 -48 -13q-5 -3 -8 2l-20 44q-4 8 3 11q18 10 44 15.5t53 5.5q101 0 101 -71q0 -32 -19 -50t-47 -18v-18q0 -17 -17 -17h-61q-17 0 -17 17zM234 766.5q-50 44.5 -50 113.5q0 8 4.5 13t11.5 5h91
q10 0 13.5 -4.5t3.5 -14.5q0 -50 65 -50t65 50q0 10 3.5 14.5t13.5 4.5h91q7 0 11.5 -5t4.5 -13q0 -69 -50 -113.5t-139 -44.5t-139 44.5zM23 18q0 8 5 20l254 608q8 19 17.5 26.5t28.5 7.5h91q19 0 28.5 -7.5t17.5 -26.5l254 -608q5 -12 5 -19q0 -9 -5.5 -14t-15.5 -5h-155
q-14 0 -22 5.5t-13 18.5l-35 96h-210l-34 -96q-5 -13 -13 -18.5t-23 -5.5h-154q-21 0 -21 18zM434 256l-61 170l-61 -170h122z" />
    <glyph glyph-name="uni1EB4" unicode="&#x1eb4;" horiz-adv-x="747" 
d="M408 922.5q-16 4.5 -44 15.5q-38 15 -54 15q-18 0 -28 -4.5t-23 -17.5q-14 -16 -25 -16q-7 0 -15.5 4.5t-23.5 15.5q-15 12 -21 19.5t-6 14.5q0 10 12 23q24 32 49.5 46.5t60.5 14.5q24 0 42 -5.5t43 -16.5q3 -1 18.5 -7.5t28.5 -6.5q16 0 26.5 5.5t23.5 20.5
q10 13 21 13q12 0 40 -20q16 -13 22.5 -20.5t6.5 -15.5q0 -9 -12 -26q-23 -32 -45.5 -44t-61.5 -12q-19 0 -35 4.5zM234 766.5q-50 44.5 -50 113.5q0 8 4.5 13t11.5 5h91q10 0 13.5 -4.5t3.5 -14.5q0 -50 65 -50t65 50q0 10 3.5 14.5t13.5 4.5h91q7 0 11.5 -5t4.5 -13
q0 -69 -50 -113.5t-139 -44.5t-139 44.5zM23 18q0 8 5 20l254 608q8 19 17.5 26.5t28.5 7.5h91q19 0 28.5 -7.5t17.5 -26.5l254 -608q5 -12 5 -19q0 -9 -5.5 -14t-15.5 -5h-155q-14 0 -22 5.5t-13 18.5l-35 96h-210l-34 -96q-5 -13 -13 -18.5t-23 -5.5h-154q-21 0 -21 18z
M434 256l-61 170l-61 -170h122z" />
    <glyph glyph-name="uni01CD" unicode="&#x1cd;" horiz-adv-x="747" 
d="M290 742.5q-8 4.5 -22 21.5l-96 125q-12 17 -12 28q0 19 30 19h77q24 0 34.5 -5t20.5 -20l51 -77l50 77q10 15 20.5 20t34.5 5h77q30 0 30 -19q0 -11 -12 -28l-96 -125q-12 -17 -20.5 -21.5t-33.5 -4.5h-101q-24 0 -32 4.5zM23 18q0 8 5 20l254 608q8 19 17.5 26.5
t28.5 7.5h91q19 0 28.5 -7.5t17.5 -26.5l254 -608q5 -12 5 -19q0 -9 -5.5 -14t-15.5 -5h-155q-14 0 -22 5.5t-13 18.5l-35 96h-210l-34 -96q-5 -13 -13 -18.5t-23 -5.5h-154q-21 0 -21 18zM434 256l-61 170l-61 -170h122z" />
    <glyph glyph-name="Acircumflex" unicode="&#xc2;" horiz-adv-x="747" 
d="M168.5 723.5q-8.5 5.5 -8.5 14.5q0 12 12 27l96 125q14 17 22 22t32 5h101q24 0 32.5 -5t21.5 -22l96 -125q12 -15 12 -27q0 -9 -8 -14.5t-23 -5.5h-75q-24 0 -35 5.5t-21 20.5l-50 77l-51 -77q-9 -15 -20 -20.5t-35 -5.5h-75q-15 0 -23.5 5.5zM23 18q0 8 5 20l254 608
q8 19 17.5 26.5t28.5 7.5h91q19 0 28.5 -7.5t17.5 -26.5l254 -608q5 -12 5 -19q0 -9 -5.5 -14t-15.5 -5h-155q-14 0 -22 5.5t-13 18.5l-35 96h-210l-34 -96q-5 -13 -13 -18.5t-23 -5.5h-154q-21 0 -21 18zM434 256l-61 170l-61 -170h122z" />
    <glyph glyph-name="uni1EA4" unicode="&#x1ea4;" horiz-adv-x="747" 
d="M490 901q0 7 2 11l32 87q8 20 15.5 27t29.5 7h74q29 0 29 -21q0 -13 -8 -26l-42 -75q-13 -21 -23 -26.5t-36 -5.5h-44q-29 0 -29 22zM169 743q0 12 12 27l95 119q14 17 22 22t32 5h85q24 0 32.5 -5t21.5 -22l95 -119q12 -15 12 -27q0 -20 -31 -20h-71q-24 0 -35 5t-20 20
l-46 68l-47 -68q-9 -15 -20 -20t-35 -5h-71q-31 0 -31 20zM23 18q0 8 5 20l254 608q8 19 17.5 26.5t28.5 7.5h91q19 0 28.5 -7.5t17.5 -26.5l254 -608q5 -12 5 -19q0 -9 -5.5 -14t-15.5 -5h-155q-14 0 -22 5.5t-13 18.5l-35 96h-210l-34 -96q-5 -13 -13 -18.5t-23 -5.5h-154
q-21 0 -21 18zM434 256l-61 170l-61 -170h122z" />
    <glyph glyph-name="uni1EAC" unicode="&#x1eac;" horiz-adv-x="747" 
d="M168.5 735.5q-8.5 5.5 -8.5 14.5q0 12 12 27l96 125q14 17 22 22t32 5h101q24 0 32.5 -5t21.5 -22l96 -125q12 -15 12 -27q0 -9 -8 -14.5t-23 -5.5h-75q-24 0 -35 5.5t-21 20.5l-50 77l-51 -77q-9 -15 -20 -20.5t-35 -5.5h-75q-15 0 -23.5 5.5zM23 18q0 8 5 20l254 608
q8 19 17.5 26.5t28.5 7.5h91q19 0 28.5 -7.5t17.5 -26.5l254 -608q5 -12 5 -19q0 -9 -5.5 -14t-15.5 -5h-155q-14 0 -22 5.5t-13 18.5l-35 96h-210l-34 -96q-5 -13 -13 -18.5t-23 -5.5h-154q-21 0 -21 18zM434 256l-61 170l-61 -170h122zM315.5 -187.5
q-17.5 18.5 -17.5 45.5v25q0 27 17.5 45.5t43.5 18.5h27q27 0 44 -18.5t17 -45.5v-25q0 -27 -17 -45.5t-44 -18.5h-27q-26 0 -43.5 18.5z" />
    <glyph glyph-name="uni1EA6" unicode="&#x1ea6;" horiz-adv-x="747" 
d="M147 884.5q-10 5.5 -23 26.5l-42 75q-8 13 -8 26q0 21 29 21h74q22 0 29.5 -7t15.5 -27l32 -87q2 -4 2 -11q0 -22 -29 -22h-44q-26 0 -36 5.5zM170 743q0 12 12 27l95 119q13 17 21.5 22t32.5 5h85q24 0 32 -5t22 -22l95 -119q12 -15 12 -27q0 -20 -31 -20h-71
q-24 0 -35 5t-20 20l-47 68l-46 -68q-9 -15 -20 -20t-35 -5h-71q-31 0 -31 20zM23 18q0 8 5 20l254 608q8 19 17.5 26.5t28.5 7.5h91q19 0 28.5 -7.5t17.5 -26.5l254 -608q5 -12 5 -19q0 -9 -5.5 -14t-15.5 -5h-155q-14 0 -22 5.5t-13 18.5l-35 96h-210l-34 -96
q-5 -13 -13 -18.5t-23 -5.5h-154q-21 0 -21 18zM434 256l-61 170l-61 -170h122z" />
    <glyph glyph-name="uni1EA8" unicode="&#x1ea8;" horiz-adv-x="747" 
d="M497 884v34q0 13 6 18.5t21 5.5q17 0 24.5 4t7.5 14q0 16 -23 16q-27 0 -48 -13q-5 -3 -8 2l-20 44q-4 8 3 11q18 10 44 15.5t53 5.5q101 0 101 -75q0 -32 -19 -49.5t-47 -17.5v-15q0 -17 -17 -17h-61q-17 0 -17 17zM177.5 728q-8.5 5 -8.5 15q0 13 13 27l95 119
q13 17 21.5 22t32.5 5h84q24 0 32.5 -5t21.5 -22l95 -119q12 -15 12 -27q0 -20 -31 -20h-71q-23 0 -34 5t-21 20l-46 68l-47 -68q-9 -15 -20 -20t-35 -5h-71q-14 0 -22.5 5zM23 18q0 8 5 20l254 608q8 19 17.5 26.5t28.5 7.5h91q19 0 28.5 -7.5t17.5 -26.5l254 -608
q5 -12 5 -19q0 -9 -5.5 -14t-15.5 -5h-155q-14 0 -22 5.5t-13 18.5l-35 96h-210l-34 -96q-5 -13 -13 -18.5t-23 -5.5h-154q-21 0 -21 18zM434 256l-61 170l-61 -170h122z" />
    <glyph glyph-name="uni1EAA" unicode="&#x1eaa;" horiz-adv-x="747" 
d="M420 926.5q-16 4.5 -44 15.5q-37 15 -54 15q-18 0 -28 -4.5t-23 -17.5q-14 -16 -25 -16q-7 0 -15.5 4.5t-23.5 15.5q-15 12 -21 19.5t-6 14.5q0 10 12 23q24 32 49.5 46.5t60.5 14.5q24 0 42 -5.5t43 -16.5q3 -1 18.5 -7.5t28.5 -6.5q16 0 26.5 5.5t23.5 20.5
q10 13 21 13q12 0 40 -20q16 -13 22.5 -20.5t6.5 -15.5q0 -9 -12 -26q-23 -32 -45.5 -44t-61.5 -12q-19 0 -35 4.5zM177.5 728.5q-8.5 5.5 -8.5 14.5q0 13 13 27l95 114q14 17 22.5 22t31.5 5h85q23 0 31.5 -5t22.5 -22l95 -114q12 -15 12 -27q0 -9 -8 -14.5t-23 -5.5h-71
q-23 0 -34 5.5t-21 19.5l-47 63l-46 -63q-10 -14 -20.5 -19.5t-34.5 -5.5h-71q-15 0 -23.5 5.5zM23 18q0 8 5 20l254 608q8 19 17.5 26.5t28.5 7.5h91q19 0 28.5 -7.5t17.5 -26.5l254 -608q5 -12 5 -19q0 -9 -5.5 -14t-15.5 -5h-155q-14 0 -22 5.5t-13 18.5l-35 96h-210
l-34 -96q-5 -13 -13 -18.5t-23 -5.5h-154q-21 0 -21 18zM434 256l-61 170l-61 -170h122z" />
    <glyph glyph-name="Adieresis" unicode="&#xc4;" horiz-adv-x="747" 
d="M209 715.5q-17 18.5 -17 45.5v25q0 27 17 45.5t44 18.5h27q27 0 44 -18.5t17 -45.5v-25q0 -27 -17 -45.5t-44 -18.5h-27q-27 0 -44 18.5zM423.5 715.5q-17.5 18.5 -17.5 45.5v25q0 27 17.5 45.5t43.5 18.5h27q27 0 44 -18.5t17 -45.5v-25q0 -27 -17 -45.5t-44 -18.5h-27
q-26 0 -43.5 18.5zM23 18q0 8 5 20l254 608q8 19 17.5 26.5t28.5 7.5h91q19 0 28.5 -7.5t17.5 -26.5l254 -608q5 -12 5 -19q0 -9 -5.5 -14t-15.5 -5h-155q-14 0 -22 5.5t-13 18.5l-35 96h-210l-34 -96q-5 -13 -13 -18.5t-23 -5.5h-154q-21 0 -21 18zM434 256l-61 170
l-61 -170h122z" />
    <glyph glyph-name="uni1EA0" unicode="&#x1ea0;" horiz-adv-x="747" 
d="M23 18q0 8 5 20l254 608q8 19 17.5 26.5t28.5 7.5h91q19 0 28.5 -7.5t17.5 -26.5l254 -608q5 -12 5 -19q0 -9 -5.5 -14t-15.5 -5h-155q-14 0 -22 5.5t-13 18.5l-35 96h-210l-34 -96q-5 -13 -13 -18.5t-23 -5.5h-154q-21 0 -21 18zM434 256l-61 170l-61 -170h122z
M317.5 -187.5q-17.5 18.5 -17.5 45.5v25q0 27 17.5 45.5t43.5 18.5h27q27 0 44 -18.5t17 -45.5v-25q0 -27 -17 -45.5t-44 -18.5h-27q-26 0 -43.5 18.5z" />
    <glyph glyph-name="Agrave" unicode="&#xc0;" horiz-adv-x="747" 
d="M296 723.5q-11 6.5 -23 26.5l-65 115q-7 11 -7 22q0 12 10.5 18.5t28.5 6.5h120q26 0 35.5 -7t16.5 -27l44 -121q3 -9 3 -16q0 -11 -8.5 -17.5t-25.5 -6.5h-89q-29 0 -40 6.5zM23 18q0 8 5 20l254 608q8 19 17.5 26.5t28.5 7.5h91q19 0 28.5 -7.5t17.5 -26.5l254 -608
q5 -12 5 -19q0 -9 -5.5 -14t-15.5 -5h-155q-14 0 -22 5.5t-13 18.5l-35 96h-210l-34 -96q-5 -13 -13 -18.5t-23 -5.5h-154q-21 0 -21 18zM434 256l-61 170l-61 -170h122z" />
    <glyph glyph-name="uni1EA2" unicode="&#x1ea2;" horiz-adv-x="747" 
d="M305 749v52q0 17 7.5 24t28.5 7q26 0 37.5 5.5t11.5 20.5q0 22 -36 22q-29 0 -67 -18q-8 -3 -12 3l-27 63q-2 4 -2 6q0 5 6 8q21 14 56.5 22.5t68.5 8.5q71 0 106.5 -27.5t35.5 -79.5q0 -46 -26.5 -73.5t-65.5 -27.5v-16q0 -23 -23 -23h-76q-23 0 -23 23zM23 18q0 8 5 20
l254 608q8 19 17.5 26.5t28.5 7.5h91q19 0 28.5 -7.5t17.5 -26.5l254 -608q5 -12 5 -19q0 -9 -5.5 -14t-15.5 -5h-155q-14 0 -22 5.5t-13 18.5l-35 96h-210l-34 -96q-5 -13 -13 -18.5t-23 -5.5h-154q-21 0 -21 18zM434 256l-61 170l-61 -170h122z" />
    <glyph glyph-name="Amacron" unicode="&#x100;" horiz-adv-x="747" 
d="M200.5 764.5q-10.5 11.5 -10.5 38.5v46q0 27 10.5 38.5t38.5 11.5h269q28 0 38 -11.5t10 -38.5v-46q0 -27 -10 -38.5t-38 -11.5h-269q-28 0 -38.5 11.5zM23 18q0 8 5 20l254 608q8 19 17.5 26.5t28.5 7.5h91q19 0 28.5 -7.5t17.5 -26.5l254 -608q5 -12 5 -19
q0 -9 -5.5 -14t-15.5 -5h-155q-14 0 -22 5.5t-13 18.5l-35 96h-210l-34 -96q-5 -13 -13 -18.5t-23 -5.5h-154q-21 0 -21 18zM434 256l-61 170l-61 -170h122z" />
    <glyph glyph-name="Aogonek" unicode="&#x104;" horiz-adv-x="747" 
d="M724 19q0 -9 -5.5 -14t-15.5 -5h-51q4 -5 -2 -11q-38 -47 -49.5 -65t-11.5 -38q0 -27 24 -27q14 0 22 4q6 2 7 2q4 0 7 -7l21 -45q2 -4 2 -6q0 -6 -12 -11q-35 -16 -102 -16q-50 0 -75.5 25t-25.5 64q0 28 14.5 57t46.5 66q10 10 13 11q-12 5 -18 21l-35 96h-210l-34 -96
q-5 -13 -13 -18.5t-23 -5.5h-154q-21 0 -21 18q0 8 5 20l254 608q8 19 17.5 26.5t28.5 7.5h91q19 0 28.5 -7.5t17.5 -26.5l254 -608q5 -12 5 -19zM434 256l-61 170l-61 -170h122z" />
    <glyph glyph-name="Aring" unicode="&#xc5;" horiz-adv-x="747" 
d="M724 19q0 -9 -5.5 -14t-15.5 -5h-155q-14 0 -22 5.5t-13 18.5l-35 96h-210l-34 -96q-5 -13 -13 -18.5t-23 -5.5h-154q-21 0 -21 18q0 8 5 20l254 608l9 18q-20 17 -31 41.5t-11 51.5q0 52 36 88t88 36t88 -36t36 -88q0 -27 -11 -51t-30 -42l9 -18l254 -608q5 -12 5 -19z
M345.5 784q-11.5 -11 -11.5 -27t11.5 -27.5t27.5 -11.5t27 11.5t11 27.5t-11 27t-27 11t-27.5 -11zM434 256l-61 170l-61 -170h122z" />
    <glyph glyph-name="Aringacute" unicode="&#x1fa;" horiz-adv-x="747" 
d="M290 927q0 8 3 15l44 121q7 20 16.5 27t35.5 7h120q18 0 28.5 -6.5t10.5 -18.5q0 -11 -7 -22l-65 -115q-12 -20 -23 -26.5t-40 -6.5h-89q-34 0 -34 25zM724 19q0 -9 -5.5 -14t-15.5 -5h-155q-14 0 -22 5.5t-13 18.5l-35 96h-210l-34 -96q-5 -13 -13 -18.5t-23 -5.5h-154
q-21 0 -21 18q0 8 5 20l254 608l9 18q-20 17 -31 41.5t-11 51.5q0 52 36 88t88 36t88 -36t36 -88q0 -27 -11 -51t-30 -42l9 -18l254 -608q5 -12 5 -19zM345.5 784q-11.5 -11 -11.5 -27t11.5 -27.5t27.5 -11.5t27 11.5t11 27.5t-11 27t-27 11t-27.5 -11zM434 256l-61 170
l-61 -170h122z" />
    <glyph glyph-name="Atilde" unicode="&#xc3;" horiz-adv-x="747" 
d="M426 723.5q-19 6.5 -47 20.5q-23 11 -39 17t-32 6q-18 0 -29.5 -7t-27.5 -25q-10 -12 -23 -12q-17 0 -52 27q-17 12 -24.5 22t-7.5 20q0 14 13 31q31 43 59 62.5t68 19.5q29 0 52.5 -8t50.5 -22q23 -11 35 -15.5t26 -4.5q17 0 28 7t28 27q11 13 23 13q17 0 52 -26
q17 -13 24.5 -23t7.5 -20q0 -15 -13 -32q-31 -45 -59.5 -64.5t-71.5 -19.5q-22 0 -41 6.5zM23 18q0 8 5 20l254 608q8 19 17.5 26.5t28.5 7.5h91q19 0 28.5 -7.5t17.5 -26.5l254 -608q5 -12 5 -19q0 -9 -5.5 -14t-15.5 -5h-155q-14 0 -22 5.5t-13 18.5l-35 96h-210l-34 -96
q-5 -13 -13 -18.5t-23 -5.5h-154q-21 0 -21 18zM434 256l-61 170l-61 -170h122z" />
    <glyph glyph-name="AE" unicode="&#xc6;" horiz-adv-x="886" 
d="M28.5 5q-5.5 5 -5.5 14q0 7 5 19l254 608q8 19 17.5 26.5t28.5 7.5h486q28 0 38.5 -11.5t10.5 -38.5v-46q0 -27 -10.5 -38.5t-38.5 -11.5h-239v-122h150q28 0 38 -11.5t10 -38.5v-44q0 -27 -10 -38.5t-38 -11.5h-150v-123h238q28 0 38.5 -11.5t10.5 -38.5v-46
q0 -26 -10.5 -37.5t-38.5 -11.5h-372q-29 0 -41 12t-12 38v72h-120l-35 -100q-5 -15 -17 -18.5t-40 -3.5h-132q-10 0 -15.5 5zM388 256v249l-82 -249h82z" />
    <glyph glyph-name="AEacute" unicode="&#x1fc;" horiz-adv-x="889" 
d="M417 742q0 8 3 15l44 121q7 20 16.5 27t35.5 7h120q18 0 28.5 -6.5t10.5 -18.5q0 -11 -7 -22l-65 -115q-12 -20 -23 -26.5t-40 -6.5h-89q-34 0 -34 25zM28.5 5q-5.5 5 -5.5 14q0 7 5 19l254 608q8 19 17.5 26.5t28.5 7.5h486q28 0 38.5 -11.5t10.5 -38.5v-46
q0 -27 -10.5 -38.5t-38.5 -11.5h-239v-122h150q28 0 38 -11.5t10 -38.5v-44q0 -27 -10 -38.5t-38 -11.5h-150v-123h238q28 0 38.5 -11.5t10.5 -38.5v-46q0 -26 -10.5 -37.5t-38.5 -11.5h-372q-29 0 -41 12t-12 38v72h-120l-35 -100q-5 -15 -17 -18.5t-40 -3.5h-132
q-10 0 -15.5 5zM388 256v249l-82 -249h82z" />
    <glyph glyph-name="B" unicode="B" horiz-adv-x="663" 
d="M54.5 12q-11.5 12 -11.5 38v579q0 26 12 38.5t40 12.5h298q117 0 173 -51.5t56 -143.5q0 -45 -22.5 -81.5t-58.5 -51.5q99 -32 99 -145q0 -91 -63.5 -149t-186.5 -58h-295q-29 0 -40.5 12zM355 414q31 0 48 15.5t17 45.5q0 32 -16 46t-49 14h-110v-121h110zM372 145
q32 0 49.5 18.5t17.5 48.5q0 34 -19 51t-52 17h-123v-135h127z" />
    <glyph glyph-name="C" unicode="C" horiz-adv-x="679" 
d="M121 75.5q-98 90.5 -98 264.5q0 175 95.5 265t272.5 90q77 0 139 -15.5t104 -43.5q11 -7 11 -18q0 -7 -7 -21l-43 -73q-6 -13 -16 -13q-6 0 -20 7q-60 33 -141 33q-93 0 -143.5 -53.5t-50.5 -157.5t54 -158t147 -54q82 0 145 33q14 7 20 7q9 0 16 -12l45 -77q6 -10 6 -18
q0 -9 -12 -18q-84 -58 -248 -58q-178 0 -276 90.5z" />
    <glyph glyph-name="Cacute" unicode="&#x106;" horiz-adv-x="679" 
d="M285 766q0 8 3 15l44 121q7 20 16.5 27t35.5 7h120q18 0 28.5 -6.5t10.5 -18.5q0 -11 -7 -22l-65 -115q-12 -20 -23 -26.5t-40 -6.5h-89q-34 0 -34 25zM121 75.5q-98 90.5 -98 264.5q0 175 95.5 265t272.5 90q77 0 139 -15.5t104 -43.5q11 -7 11 -18q0 -7 -7 -21l-43 -73
q-6 -13 -16 -13q-6 0 -20 7q-60 33 -141 33q-93 0 -143.5 -53.5t-50.5 -157.5t54 -158t147 -54q82 0 145 33q14 7 20 7q9 0 16 -12l45 -77q6 -10 6 -18q0 -9 -12 -18q-84 -58 -248 -58q-178 0 -276 90.5z" />
    <glyph glyph-name="Ccaron" unicode="&#x10c;" horiz-adv-x="679" 
d="M312 754.5q-8 4.5 -22 21.5l-96 125q-12 17 -12 28q0 19 30 19h77q24 0 34.5 -5t20.5 -20l51 -77l50 77q10 15 20.5 20t34.5 5h77q30 0 30 -19q0 -11 -12 -28l-96 -125q-12 -17 -20.5 -21.5t-33.5 -4.5h-101q-24 0 -32 4.5zM121 75.5q-98 90.5 -98 264.5q0 175 95.5 265
t272.5 90q77 0 139 -15.5t104 -43.5q11 -7 11 -18q0 -7 -7 -21l-43 -73q-6 -13 -16 -13q-6 0 -20 7q-60 33 -141 33q-93 0 -143.5 -53.5t-50.5 -157.5t54 -158t147 -54q82 0 145 33q14 7 20 7q9 0 16 -12l45 -77q6 -10 6 -18q0 -9 -12 -18q-84 -58 -248 -58
q-178 0 -276 90.5z" />
    <glyph glyph-name="Ccedilla" unicode="&#xc7;" horiz-adv-x="679" 
d="M657 61q0 -9 -12 -18q-67 -46 -185 -56q0 -5 -2 -8l-23 -50q34 -6 50 -24t16 -50q0 -38 -33 -63t-98 -25q-27 0 -56 5t-44 13q-9 5 -11 8t1 10l21 53q3 7 8 7q4 0 10 -3q20 -10 43 -10q33 0 33 21q0 15 -12 20.5t-40 5.5h-17q-8 0 -10.5 4.5t0.5 11.5l27 68q2 6 4 8
q-146 17 -225 106t-79 245q0 175 95.5 265t272.5 90q77 0 139 -15.5t104 -43.5q11 -7 11 -18q0 -7 -7 -21l-43 -73q-6 -13 -16 -13q-6 0 -20 7q-60 33 -141 33q-93 0 -143.5 -53.5t-50.5 -157.5t54 -158t147 -54q82 0 145 33q14 7 20 7q9 0 16 -12l45 -77q6 -10 6 -18z" />
    <glyph glyph-name="Ccircumflex" unicode="&#x108;" horiz-adv-x="679" 
d="M168.5 735.5q-8.5 5.5 -8.5 14.5q0 12 12 27l96 125q14 17 22 22t32 5h101q24 0 32.5 -5t21.5 -22l96 -125q12 -15 12 -27q0 -9 -8 -14.5t-23 -5.5h-75q-24 0 -35 5.5t-21 20.5l-50 77l-51 -77q-9 -15 -20 -20.5t-35 -5.5h-75q-15 0 -23.5 5.5zM121 75.5
q-98 90.5 -98 264.5q0 175 95.5 265t272.5 90q77 0 139 -15.5t104 -43.5q11 -7 11 -18q0 -7 -7 -21l-43 -73q-6 -13 -16 -13q-6 0 -20 7q-60 33 -141 33q-93 0 -143.5 -53.5t-50.5 -157.5t54 -158t147 -54q82 0 145 33q14 7 20 7q9 0 16 -12l45 -77q6 -10 6 -18
q0 -9 -12 -18q-84 -58 -248 -58q-178 0 -276 90.5z" />
    <glyph glyph-name="Cdotaccent" unicode="&#x10a;" horiz-adv-x="679" 
d="M350 769.5q-17 18.5 -17 45.5v25q0 27 17 45.5t44 18.5h27q27 0 44 -18.5t17 -45.5v-25q0 -27 -17 -45.5t-44 -18.5h-27q-27 0 -44 18.5zM121 75.5q-98 90.5 -98 264.5q0 175 95.5 265t272.5 90q77 0 139 -15.5t104 -43.5q11 -7 11 -18q0 -7 -7 -21l-43 -73
q-6 -13 -16 -13q-6 0 -20 7q-60 33 -141 33q-93 0 -143.5 -53.5t-50.5 -157.5t54 -158t147 -54q82 0 145 33q14 7 20 7q9 0 16 -12l45 -77q6 -10 6 -18q0 -9 -12 -18q-84 -58 -248 -58q-178 0 -276 90.5z" />
    <glyph glyph-name="D" unicode="D" horiz-adv-x="689" 
d="M54.5 12q-11.5 12 -11.5 38v579q0 26 12 38.5t40 12.5h220q172 0 261.5 -82.5t89.5 -257.5q0 -171 -90 -255.5t-261 -84.5h-220q-29 0 -40.5 12zM324 145q72 0 106.5 43.5t34.5 151.5t-34.5 151t-106.5 43h-79v-389h79z" />
    <glyph glyph-name="Eth" unicode="&#xd0;" horiz-adv-x="730" 
d="M95 12q-12 12 -12 38v218h-33q-27 0 -37 11t-10 38v47q0 27 10 38t37 11h33v216q0 26 12 38.5t41 12.5h220q351 0 351 -340q0 -171 -90.5 -255.5t-260.5 -84.5h-220q-29 0 -41 12zM364 145q73 0 107 43.5t34 151.5t-34 151t-107 43h-78v-121h92q27 0 37 -11t10 -38v-47
q0 -27 -10 -38t-37 -11h-92v-123h78z" />
    <glyph glyph-name="Dcaron" unicode="&#x10e;" horiz-adv-x="689" 
d="M232 754.5q-8 4.5 -22 21.5l-96 125q-12 17 -12 28q0 19 30 19h77q24 0 34.5 -5t20.5 -20l51 -77l50 77q10 15 20.5 20t34.5 5h77q30 0 30 -19q0 -11 -12 -28l-96 -125q-12 -17 -20.5 -21.5t-33.5 -4.5h-101q-24 0 -32 4.5zM54.5 12q-11.5 12 -11.5 38v579q0 26 12 38.5
t40 12.5h220q172 0 261.5 -82.5t89.5 -257.5q0 -171 -90 -255.5t-261 -84.5h-220q-29 0 -40.5 12zM324 145q72 0 106.5 43.5t34.5 151.5t-34.5 151t-106.5 43h-79v-389h79z" />
    <glyph glyph-name="Dcroat" unicode="&#x110;" horiz-adv-x="720" 
d="M85 12q-12 12 -12 38v218h-32q-28 0 -38 11.5t-10 37.5v46q0 27 10 38.5t38 11.5h32v216q0 26 12 38.5t41 12.5h220q351 0 351 -340q0 -171 -90.5 -255.5t-260.5 -84.5h-220q-29 0 -41 12zM354 145q73 0 107 43.5t34 151.5t-34 151t-107 43h-78v-121h90q28 0 38.5 -11.5
t10.5 -38.5v-46q0 -26 -10.5 -37.5t-38.5 -11.5h-90v-123h78z" />
    <glyph glyph-name="uni1E0C" unicode="&#x1e0c;" horiz-adv-x="689" 
d="M54.5 12q-11.5 12 -11.5 38v579q0 26 12 38.5t40 12.5h220q172 0 261.5 -82.5t89.5 -257.5q0 -171 -90 -255.5t-261 -84.5h-220q-29 0 -40.5 12zM324 145q72 0 106.5 43.5t34.5 151.5t-34.5 151t-106.5 43h-79v-389h79zM248.5 -187.5q-17.5 18.5 -17.5 45.5v25
q0 27 17.5 45.5t43.5 18.5h27q27 0 44 -18.5t17 -45.5v-25q0 -27 -17 -45.5t-44 -18.5h-27q-26 0 -43.5 18.5z" />
    <glyph glyph-name="uni1E0E" unicode="&#x1e0e;" horiz-adv-x="689" 
d="M54.5 12q-11.5 12 -11.5 38v579q0 26 12 38.5t40 12.5h220q172 0 261.5 -82.5t89.5 -257.5q0 -171 -90 -255.5t-261 -84.5h-220q-29 0 -40.5 12zM324 145q72 0 106.5 43.5t34.5 151.5t-34.5 151t-106.5 43h-79v-389h79zM126 -175.5q-10 11.5 -10 37.5v31q0 26 10 38
t38 12h243q28 0 38.5 -12t10.5 -38v-31q0 -26 -10.5 -37.5t-38.5 -11.5h-243q-28 0 -38 11.5z" />
    <glyph glyph-name="E" unicode="E" horiz-adv-x="571" 
d="M54.5 12q-11.5 12 -11.5 38v579q0 26 12 38.5t40 12.5h415q28 0 38 -11.5t10 -38.5v-46q0 -27 -10 -38.5t-38 -11.5h-265v-122h175q28 0 38.5 -11.5t10.5 -38.5v-44q0 -27 -10.5 -38.5t-38.5 -11.5h-175v-123h264q28 0 38 -11.5t10 -38.5v-46q0 -26 -10 -37.5t-38 -11.5
h-414q-29 0 -40.5 12z" />
    <glyph glyph-name="Eacute" unicode="&#xc9;" horiz-adv-x="571" 
d="M191 766q0 8 3 15l44 121q7 20 16.5 27t35.5 7h120q18 0 28.5 -6.5t10.5 -18.5q0 -11 -7 -22l-65 -115q-12 -20 -23 -26.5t-40 -6.5h-89q-34 0 -34 25zM54.5 12q-11.5 12 -11.5 38v579q0 26 12 38.5t40 12.5h415q28 0 38 -11.5t10 -38.5v-46q0 -27 -10 -38.5t-38 -11.5
h-265v-122h175q28 0 38.5 -11.5t10.5 -38.5v-44q0 -27 -10.5 -38.5t-38.5 -11.5h-175v-123h264q28 0 38 -11.5t10 -38.5v-46q0 -26 -10 -37.5t-38 -11.5h-414q-29 0 -40.5 12z" />
    <glyph glyph-name="Ebreve" unicode="&#x114;" horiz-adv-x="571" 
d="M169.5 792q-48.5 48 -48.5 125q0 8 4.5 13t11.5 5h108q10 0 13.5 -4.5t3.5 -14.5q0 -49 48 -49t48 49q0 10 3.5 14.5t13.5 4.5h108q7 0 11.5 -5t4.5 -13q0 -77 -49 -125t-140 -48q-92 0 -140.5 48zM54.5 12q-11.5 12 -11.5 38v579q0 26 12 38.5t40 12.5h415
q28 0 38 -11.5t10 -38.5v-46q0 -27 -10 -38.5t-38 -11.5h-265v-122h175q28 0 38.5 -11.5t10.5 -38.5v-44q0 -27 -10.5 -38.5t-38.5 -11.5h-175v-123h264q28 0 38 -11.5t10 -38.5v-46q0 -26 -10 -37.5t-38 -11.5h-414q-29 0 -40.5 12z" />
    <glyph glyph-name="Ecaron" unicode="&#x11a;" horiz-adv-x="571" 
d="M222 754.5q-8 4.5 -22 21.5l-96 125q-12 17 -12 28q0 19 30 19h77q24 0 34.5 -5t20.5 -20l51 -77l50 77q10 15 20.5 20t34.5 5h77q30 0 30 -19q0 -11 -12 -28l-96 -125q-12 -17 -20.5 -21.5t-33.5 -4.5h-101q-24 0 -32 4.5zM54.5 12q-11.5 12 -11.5 38v579q0 26 12 38.5
t40 12.5h415q28 0 38 -11.5t10 -38.5v-46q0 -27 -10 -38.5t-38 -11.5h-265v-122h175q28 0 38.5 -11.5t10.5 -38.5v-44q0 -27 -10.5 -38.5t-38.5 -11.5h-175v-123h264q28 0 38 -11.5t10 -38.5v-46q0 -26 -10 -37.5t-38 -11.5h-414q-29 0 -40.5 12z" />
    <glyph glyph-name="Ecircumflex" unicode="&#xca;" horiz-adv-x="571" 
d="M95.5 747.5q-8.5 5.5 -8.5 14.5q0 12 12 27l96 125q14 17 22 22t32 5h101q24 0 32.5 -5t21.5 -22l96 -125q12 -15 12 -27q0 -9 -8 -14.5t-23 -5.5h-75q-24 0 -35 5.5t-21 20.5l-50 77l-51 -77q-9 -15 -20 -20.5t-35 -5.5h-75q-15 0 -23.5 5.5zM54.5 12q-11.5 12 -11.5 38
v579q0 26 12 38.5t40 12.5h415q28 0 38 -11.5t10 -38.5v-46q0 -27 -10 -38.5t-38 -11.5h-265v-122h175q28 0 38.5 -11.5t10.5 -38.5v-44q0 -27 -10.5 -38.5t-38.5 -11.5h-175v-123h264q28 0 38 -11.5t10 -38.5v-46q0 -26 -10 -37.5t-38 -11.5h-414q-29 0 -40.5 12z" />
    <glyph glyph-name="uni1EBE" unicode="&#x1ebe;" horiz-adv-x="571" 
d="M409 901q0 7 2 11l32 87q8 20 15.5 27t29.5 7h74q29 0 29 -21q0 -13 -8 -26l-42 -75q-13 -21 -23 -26.5t-36 -5.5h-44q-29 0 -29 22zM88 743q0 12 12 27l95 119q14 17 22 22t32 5h85q24 0 32.5 -5t21.5 -22l95 -119q12 -15 12 -27q0 -20 -31 -20h-71q-24 0 -35 5t-20 20
l-46 68l-47 -68q-9 -15 -20 -20t-35 -5h-71q-31 0 -31 20zM54.5 12q-11.5 12 -11.5 38v579q0 26 12 38.5t40 12.5h415q28 0 38 -11.5t10 -38.5v-46q0 -27 -10 -38.5t-38 -11.5h-265v-122h175q28 0 38.5 -11.5t10.5 -38.5v-44q0 -27 -10.5 -38.5t-38.5 -11.5h-175v-123h264
q28 0 38 -11.5t10 -38.5v-46q0 -26 -10 -37.5t-38 -11.5h-414q-29 0 -40.5 12z" />
    <glyph glyph-name="uni1EC6" unicode="&#x1ec6;" horiz-adv-x="571" 
d="M89.5 735.5q-8.5 5.5 -8.5 14.5q0 12 12 27l96 125q14 17 22 22t32 5h101q24 0 32.5 -5t21.5 -22l96 -125q12 -15 12 -27q0 -9 -8 -14.5t-23 -5.5h-75q-24 0 -35 5.5t-21 20.5l-50 77l-51 -77q-9 -15 -20 -20.5t-35 -5.5h-75q-15 0 -23.5 5.5zM54.5 12q-11.5 12 -11.5 38
v579q0 26 12 38.5t40 12.5h415q28 0 38 -11.5t10 -38.5v-46q0 -27 -10 -38.5t-38 -11.5h-265v-122h175q28 0 38.5 -11.5t10.5 -38.5v-44q0 -27 -10.5 -38.5t-38.5 -11.5h-175v-123h264q28 0 38 -11.5t10 -38.5v-46q0 -26 -10 -37.5t-38 -11.5h-414q-29 0 -40.5 12z
M242.5 -187.5q-17.5 18.5 -17.5 45.5v25q0 27 17.5 45.5t43.5 18.5h27q27 0 44 -18.5t17 -45.5v-25q0 -27 -17 -45.5t-44 -18.5h-27q-26 0 -43.5 18.5z" />
    <glyph glyph-name="uni1EC0" unicode="&#x1ec0;" horiz-adv-x="571" 
d="M51 986q-8 13 -8 26q0 21 29 21h74q22 0 29.5 -7t15.5 -27l32 -87q2 -4 2 -11q8 9 17 12t28 3h85q24 0 32 -5t22 -22l95 -119q12 -15 12 -27q0 -20 -31 -20h-71q-24 0 -35 5t-20 20l-47 68l-46 -68q-9 -15 -20 -20t-35 -5h-71q-31 0 -31 20q0 12 12 27l88 111
q-6 -2 -13 -2h-44q-26 0 -36 5.5t-23 26.5zM245 534v-122h175q28 0 38.5 -11.5t10.5 -38.5v-44q0 -27 -10.5 -38.5t-38.5 -11.5h-175v-123h264q28 0 38 -11.5t10 -38.5v-46q0 -26 -10 -37.5t-38 -11.5h-414q-29 0 -40.5 12t-11.5 38v579q0 26 12 38.5t40 12.5h415
q28 0 38 -11.5t10 -38.5v-46q0 -27 -10 -38.5t-38 -11.5h-265z" />
    <glyph glyph-name="uni1EC2" unicode="&#x1ec2;" horiz-adv-x="571" 
d="M422 884v34q0 13 6 18.5t21 5.5q17 0 24.5 4t7.5 14q0 16 -23 16q-27 0 -48 -13q-5 -3 -8 2l-20 44q-4 8 3 11q18 10 44 15.5t53 5.5q101 0 101 -75q0 -32 -19 -49.5t-47 -17.5v-15q0 -17 -17 -17h-61q-17 0 -17 17zM102.5 728q-8.5 5 -8.5 15q0 13 13 27l95 119
q13 17 21.5 22t32.5 5h84q24 0 32.5 -5t21.5 -22l95 -119q12 -15 12 -27q0 -20 -31 -20h-71q-23 0 -34 5t-21 20l-46 68l-47 -68q-9 -15 -20 -20t-35 -5h-71q-14 0 -22.5 5zM54.5 12q-11.5 12 -11.5 38v579q0 26 12 38.5t40 12.5h415q28 0 38 -11.5t10 -38.5v-46
q0 -27 -10 -38.5t-38 -11.5h-265v-122h175q28 0 38.5 -11.5t10.5 -38.5v-44q0 -27 -10.5 -38.5t-38.5 -11.5h-175v-123h264q28 0 38 -11.5t10 -38.5v-46q0 -26 -10 -37.5t-38 -11.5h-414q-29 0 -40.5 12z" />
    <glyph glyph-name="uni1EC4" unicode="&#x1ec4;" horiz-adv-x="571" 
d="M350 926.5q-16 4.5 -44 15.5q-37 15 -54 15q-18 0 -28 -4.5t-23 -17.5q-14 -16 -25 -16q-7 0 -15.5 4.5t-23.5 15.5q-15 12 -21 19.5t-6 14.5q0 10 12 23q24 32 49.5 46.5t60.5 14.5q24 0 42 -5.5t43 -16.5q3 -1 18.5 -7.5t28.5 -6.5q16 0 26.5 5.5t23.5 20.5
q10 13 21 13q12 0 40 -20q16 -13 22.5 -20.5t6.5 -15.5q0 -9 -12 -26q-23 -32 -45.5 -44t-61.5 -12q-19 0 -35 4.5zM107.5 728.5q-8.5 5.5 -8.5 14.5q0 13 13 27l95 114q14 17 22.5 22t31.5 5h85q23 0 31.5 -5t22.5 -22l95 -114q12 -15 12 -27q0 -9 -8 -14.5t-23 -5.5h-71
q-23 0 -34 5.5t-21 19.5l-47 63l-46 -63q-10 -14 -20.5 -19.5t-34.5 -5.5h-71q-15 0 -23.5 5.5zM54.5 12q-11.5 12 -11.5 38v579q0 26 12 38.5t40 12.5h415q28 0 38 -11.5t10 -38.5v-46q0 -27 -10 -38.5t-38 -11.5h-265v-122h175q28 0 38.5 -11.5t10.5 -38.5v-44
q0 -27 -10.5 -38.5t-38.5 -11.5h-175v-123h264q28 0 38 -11.5t10 -38.5v-46q0 -26 -10 -37.5t-38 -11.5h-414q-29 0 -40.5 12z" />
    <glyph glyph-name="Edieresis" unicode="&#xcb;" horiz-adv-x="571" 
d="M133 739.5q-17 18.5 -17 45.5v25q0 27 17 45.5t44 18.5h27q27 0 44 -18.5t17 -45.5v-25q0 -27 -17 -45.5t-44 -18.5h-27q-27 0 -44 18.5zM347.5 739.5q-17.5 18.5 -17.5 45.5v25q0 27 17.5 45.5t43.5 18.5h27q27 0 44 -18.5t17 -45.5v-25q0 -27 -17 -45.5t-44 -18.5h-27
q-26 0 -43.5 18.5zM54.5 12q-11.5 12 -11.5 38v579q0 26 12 38.5t40 12.5h415q28 0 38 -11.5t10 -38.5v-46q0 -27 -10 -38.5t-38 -11.5h-265v-122h175q28 0 38.5 -11.5t10.5 -38.5v-44q0 -27 -10.5 -38.5t-38.5 -11.5h-175v-123h264q28 0 38 -11.5t10 -38.5v-46
q0 -26 -10 -37.5t-38 -11.5h-414q-29 0 -40.5 12z" />
    <glyph glyph-name="Edotaccent" unicode="&#x116;" horiz-adv-x="571" 
d="M247 769.5q-17 18.5 -17 45.5v25q0 27 17 45.5t44 18.5h27q27 0 44 -18.5t17 -45.5v-25q0 -27 -17 -45.5t-44 -18.5h-27q-27 0 -44 18.5zM54.5 12q-11.5 12 -11.5 38v579q0 26 12 38.5t40 12.5h415q28 0 38 -11.5t10 -38.5v-46q0 -27 -10 -38.5t-38 -11.5h-265v-122h175
q28 0 38.5 -11.5t10.5 -38.5v-44q0 -27 -10.5 -38.5t-38.5 -11.5h-175v-123h264q28 0 38 -11.5t10 -38.5v-46q0 -26 -10 -37.5t-38 -11.5h-414q-29 0 -40.5 12z" />
    <glyph glyph-name="uni1EB8" unicode="&#x1eb8;" horiz-adv-x="571" 
d="M54.5 12q-11.5 12 -11.5 38v579q0 26 12 38.5t40 12.5h415q28 0 38 -11.5t10 -38.5v-46q0 -27 -10 -38.5t-38 -11.5h-265v-122h175q28 0 38.5 -11.5t10.5 -38.5v-44q0 -27 -10.5 -38.5t-38.5 -11.5h-175v-123h264q28 0 38 -11.5t10 -38.5v-46q0 -26 -10 -37.5t-38 -11.5
h-414q-29 0 -40.5 12zM227.5 -187.5q-17.5 18.5 -17.5 45.5v25q0 27 17.5 45.5t43.5 18.5h27q27 0 44 -18.5t17 -45.5v-25q0 -27 -17 -45.5t-44 -18.5h-27q-26 0 -43.5 18.5z" />
    <glyph glyph-name="Egrave" unicode="&#xc8;" horiz-adv-x="571" 
d="M246 747.5q-11 6.5 -23 26.5l-65 115q-7 11 -7 22q0 12 10.5 18.5t28.5 6.5h120q26 0 35.5 -7t16.5 -27l44 -121q3 -9 3 -16q0 -11 -8.5 -17.5t-25.5 -6.5h-89q-29 0 -40 6.5zM54.5 12q-11.5 12 -11.5 38v579q0 26 12 38.5t40 12.5h415q28 0 38 -11.5t10 -38.5v-46
q0 -27 -10 -38.5t-38 -11.5h-265v-122h175q28 0 38.5 -11.5t10.5 -38.5v-44q0 -27 -10.5 -38.5t-38.5 -11.5h-175v-123h264q28 0 38 -11.5t10 -38.5v-46q0 -26 -10 -37.5t-38 -11.5h-414q-29 0 -40.5 12z" />
    <glyph glyph-name="uni1EBA" unicode="&#x1eba;" horiz-adv-x="571" 
d="M242 749v52q0 17 7.5 24t28.5 7q26 0 37.5 5.5t11.5 20.5q0 22 -36 22q-29 0 -67 -18q-8 -3 -12 3l-27 63q-2 4 -2 6q0 5 6 8q21 14 56.5 22.5t68.5 8.5q71 0 106.5 -27.5t35.5 -79.5q0 -46 -26.5 -73.5t-65.5 -27.5v-16q0 -23 -23 -23h-76q-23 0 -23 23zM54.5 12
q-11.5 12 -11.5 38v579q0 26 12 38.5t40 12.5h415q28 0 38 -11.5t10 -38.5v-46q0 -27 -10 -38.5t-38 -11.5h-265v-122h175q28 0 38.5 -11.5t10.5 -38.5v-44q0 -27 -10.5 -38.5t-38.5 -11.5h-175v-123h264q28 0 38 -11.5t10 -38.5v-46q0 -26 -10 -37.5t-38 -11.5h-414
q-29 0 -40.5 12z" />
    <glyph glyph-name="Emacron" unicode="&#x112;" horiz-adv-x="571" 
d="M137.5 764.5q-10.5 11.5 -10.5 38.5v46q0 27 10.5 38.5t38.5 11.5h269q28 0 38 -11.5t10 -38.5v-46q0 -27 -10 -38.5t-38 -11.5h-269q-28 0 -38.5 11.5zM54.5 12q-11.5 12 -11.5 38v579q0 26 12 38.5t40 12.5h415q28 0 38 -11.5t10 -38.5v-46q0 -27 -10 -38.5t-38 -11.5
h-265v-122h175q28 0 38.5 -11.5t10.5 -38.5v-44q0 -27 -10.5 -38.5t-38.5 -11.5h-175v-123h264q28 0 38 -11.5t10 -38.5v-46q0 -26 -10 -37.5t-38 -11.5h-414q-29 0 -40.5 12z" />
    <glyph glyph-name="Eogonek" unicode="&#x118;" horiz-adv-x="571" 
d="M245 534v-122h175q28 0 38.5 -11.5t10.5 -38.5v-44q0 -27 -10.5 -38.5t-38.5 -11.5h-175v-123h264q28 0 38 -11.5t10 -38.5v-46q0 -26 -10 -37.5t-37 -11.5q4 -5 -2 -11q-38 -47 -49.5 -65t-11.5 -38q0 -27 24 -27q14 0 22 4q6 2 7 2q4 0 7 -7l21 -45q2 -4 2 -6
q0 -6 -12 -11q-35 -16 -102 -16q-50 0 -75.5 25t-25.5 64q0 28 14.5 57t46.5 66l8 8h-289q-29 0 -40.5 12t-11.5 38v579q0 26 12 38.5t40 12.5h415q28 0 38 -11.5t10 -38.5v-46q0 -27 -10 -38.5t-38 -11.5h-265z" />
    <glyph glyph-name="uni1EBC" unicode="&#x1ebc;" horiz-adv-x="571" 
d="M380 735.5q-19 6.5 -47 20.5q-23 11 -39 17t-32 6q-18 0 -29.5 -7t-27.5 -25q-11 -12 -23 -12q-17 0 -52 27q-17 12 -24.5 22t-7.5 20q0 14 13 31q31 43 59 62.5t68 19.5q29 0 52.5 -8t50.5 -22q23 -11 35 -15.5t26 -4.5q17 0 28 7t28 27q11 13 23 13q17 0 52 -26
q17 -13 24.5 -23t7.5 -20q0 -15 -13 -32q-31 -45 -59.5 -64.5t-71.5 -19.5q-22 0 -41 6.5zM54.5 12q-11.5 12 -11.5 38v579q0 26 12 38.5t40 12.5h415q28 0 38 -11.5t10 -38.5v-46q0 -27 -10 -38.5t-38 -11.5h-265v-122h175q28 0 38.5 -11.5t10.5 -38.5v-44
q0 -27 -10.5 -38.5t-38.5 -11.5h-175v-123h264q28 0 38 -11.5t10 -38.5v-46q0 -26 -10 -37.5t-38 -11.5h-414q-29 0 -40.5 12z" />
    <glyph glyph-name="F" unicode="F" horiz-adv-x="561" 
d="M54.5 12q-11.5 12 -11.5 38v579q0 26 12 38.5t40 12.5h415q28 0 38 -11.5t10 -38.5v-46q0 -27 -10 -38.5t-38 -11.5h-265v-121h175q28 0 38.5 -11.5t10.5 -38.5v-46q0 -27 -10.5 -38.5t-38.5 -11.5h-175v-217q0 -26 -12 -38t-41 -12h-97q-29 0 -40.5 12z" />
    <glyph glyph-name="G" unicode="G" horiz-adv-x="705" 
d="M121 75.5q-98 90.5 -98 264.5t98.5 264.5t275.5 90.5q77 0 140 -15.5t105 -43.5q11 -7 11 -17q0 -6 -7 -20l-44 -75q-6 -13 -16 -13q-6 0 -20 7q-64 33 -142 33q-93 0 -146.5 -53t-53.5 -158q0 -107 48 -159t137 -52q22 0 46.5 4t39.5 10v122h-86q-28 0 -38.5 11
t-10.5 38v45q0 26 10.5 37t38.5 11h213q34 0 47 -15.5t13 -47.5v-244q0 -19 -4.5 -29.5t-18.5 -20.5q-92 -65 -262 -65q-178 0 -276 90.5z" />
    <glyph glyph-name="Gbreve" unicode="&#x11e;" horiz-adv-x="705" 
d="M250.5 768q-48.5 48 -48.5 125q0 8 4.5 13t11.5 5h108q10 0 13.5 -4.5t3.5 -14.5q0 -49 48 -49t48 49q0 10 3.5 14.5t13.5 4.5h108q7 0 11.5 -5t4.5 -13q0 -77 -49 -125t-140 -48q-92 0 -140.5 48zM121 75.5q-98 90.5 -98 264.5t98.5 264.5t275.5 90.5q77 0 140 -15.5
t105 -43.5q11 -7 11 -17q0 -6 -7 -20l-44 -75q-6 -13 -16 -13q-6 0 -20 7q-64 33 -142 33q-93 0 -146.5 -53t-53.5 -158q0 -107 48 -159t137 -52q22 0 46.5 4t39.5 10v122h-86q-28 0 -38.5 11t-10.5 38v45q0 26 10.5 37t38.5 11h213q34 0 47 -15.5t13 -47.5v-244
q0 -19 -4.5 -29.5t-18.5 -20.5q-92 -65 -262 -65q-178 0 -276 90.5z" />
    <glyph glyph-name="Gcaron" unicode="&#x1e6;" horiz-adv-x="705" 
d="M317 742.5q-8 4.5 -22 21.5l-96 125q-12 17 -12 28q0 19 30 19h77q24 0 34.5 -5t20.5 -20l51 -77l50 77q10 15 20.5 20t34.5 5h77q30 0 30 -19q0 -11 -12 -28l-96 -125q-12 -17 -20.5 -21.5t-33.5 -4.5h-101q-24 0 -32 4.5zM121 75.5q-98 90.5 -98 264.5t98.5 264.5
t275.5 90.5q77 0 140 -15.5t105 -43.5q11 -7 11 -17q0 -6 -7 -20l-44 -75q-6 -13 -16 -13q-6 0 -20 7q-64 33 -142 33q-93 0 -146.5 -53t-53.5 -158q0 -107 48 -159t137 -52q22 0 46.5 4t39.5 10v122h-86q-28 0 -38.5 11t-10.5 38v45q0 26 10.5 37t38.5 11h213
q34 0 47 -15.5t13 -47.5v-244q0 -19 -4.5 -29.5t-18.5 -20.5q-92 -65 -262 -65q-178 0 -276 90.5z" />
    <glyph glyph-name="Gcircumflex" unicode="&#x11c;" horiz-adv-x="705" 
d="M194.5 723.5q-8.5 5.5 -8.5 14.5q0 12 12 27l96 125q14 17 22 22t32 5h101q24 0 32.5 -5t21.5 -22l96 -125q12 -15 12 -27q0 -9 -8 -14.5t-23 -5.5h-75q-24 0 -35 5.5t-21 20.5l-50 77l-51 -77q-9 -15 -20 -20.5t-35 -5.5h-75q-15 0 -23.5 5.5zM121 75.5
q-98 90.5 -98 264.5t98.5 264.5t275.5 90.5q77 0 140 -15.5t105 -43.5q11 -7 11 -17q0 -6 -7 -20l-44 -75q-6 -13 -16 -13q-6 0 -20 7q-64 33 -142 33q-93 0 -146.5 -53t-53.5 -158q0 -107 48 -159t137 -52q22 0 46.5 4t39.5 10v122h-86q-28 0 -38.5 11t-10.5 38v45
q0 26 10.5 37t38.5 11h213q34 0 47 -15.5t13 -47.5v-244q0 -19 -4.5 -29.5t-18.5 -20.5q-92 -65 -262 -65q-178 0 -276 90.5z" />
    <glyph glyph-name="Gcommaaccent" unicode="&#x122;" horiz-adv-x="705" 
d="M121 75.5q-98 90.5 -98 264.5t98.5 264.5t275.5 90.5q77 0 140 -15.5t105 -43.5q11 -7 11 -17q0 -6 -7 -20l-44 -75q-6 -13 -16 -13q-6 0 -20 7q-64 33 -142 33q-93 0 -146.5 -53t-53.5 -158q0 -107 48 -159t137 -52q22 0 46.5 4t39.5 10v122h-86q-28 0 -38.5 11
t-10.5 38v45q0 26 10.5 37t38.5 11h213q34 0 47 -15.5t13 -47.5v-244q0 -19 -4.5 -29.5t-18.5 -20.5q-92 -65 -262 -65q-178 0 -276 90.5zM294 -244q0 3 2 13l45 158q7 22 17 29.5t33 7.5h80q20 0 29 -5t9 -16q0 -10 -8 -29l-66 -155q-5 -12 -13.5 -17.5t-25.5 -5.5h-76
q-26 0 -26 20z" />
    <glyph glyph-name="Gdotaccent" unicode="&#x120;" horiz-adv-x="705" 
d="M333 761.5q-17 18.5 -17 45.5v25q0 27 17 45.5t44 18.5h27q27 0 44 -18.5t17 -45.5v-25q0 -27 -17 -45.5t-44 -18.5h-27q-27 0 -44 18.5zM121 75.5q-98 90.5 -98 264.5t98.5 264.5t275.5 90.5q77 0 140 -15.5t105 -43.5q11 -7 11 -17q0 -6 -7 -20l-44 -75q-6 -13 -16 -13
q-6 0 -20 7q-64 33 -142 33q-93 0 -146.5 -53t-53.5 -158q0 -107 48 -159t137 -52q22 0 46.5 4t39.5 10v122h-86q-28 0 -38.5 11t-10.5 38v45q0 26 10.5 37t38.5 11h213q34 0 47 -15.5t13 -47.5v-244q0 -19 -4.5 -29.5t-18.5 -20.5q-92 -65 -262 -65q-178 0 -276 90.5z" />
    <glyph glyph-name="uni1E20" unicode="&#x1e20;" horiz-adv-x="705" 
d="M200.5 752.5q-10.5 11.5 -10.5 38.5v46q0 27 10.5 38.5t38.5 11.5h269q28 0 38 -11.5t10 -38.5v-46q0 -27 -10 -38.5t-38 -11.5h-269q-28 0 -38.5 11.5zM121 75.5q-98 90.5 -98 264.5t98.5 264.5t275.5 90.5q77 0 140 -15.5t105 -43.5q11 -7 11 -17q0 -6 -7 -20l-44 -75
q-6 -13 -16 -13q-6 0 -20 7q-64 33 -142 33q-93 0 -146.5 -53t-53.5 -158q0 -107 48 -159t137 -52q22 0 46.5 4t39.5 10v122h-86q-28 0 -38.5 11t-10.5 38v45q0 26 10.5 37t38.5 11h213q34 0 47 -15.5t13 -47.5v-244q0 -19 -4.5 -29.5t-18.5 -20.5q-92 -65 -262 -65
q-178 0 -276 90.5z" />
    <glyph glyph-name="H" unicode="H" horiz-adv-x="719" 
d="M54.5 12q-11.5 12 -11.5 38v579q0 26 12 38.5t40 12.5h97q29 0 41 -12.5t12 -38.5v-216h228v216q0 26 12 38.5t41 12.5h97q29 0 41 -12.5t12 -38.5v-579q0 -26 -12 -38t-41 -12h-97q-29 0 -41 12t-12 38v218h-228v-218q0 -26 -12 -38t-41 -12h-97q-29 0 -40.5 12z" />
    <glyph glyph-name="Hbar" unicode="&#x126;" horiz-adv-x="770" 
d="M743 589q7 -7 7 -27v-51q0 -21 -7 -27.5t-28 -6.5h-12v-427q0 -26 -12 -38t-41 -12h-97q-29 0 -41 12t-12 38v218h-228v-218q0 -26 -12 -38t-41 -12h-97q-29 0 -40.5 12t-11.5 38v427h-15q-21 0 -28 6.5t-7 27.5v51q0 20 7 27t28 7h15v33q0 26 12 38.5t40 12.5h97
q29 0 41 -12.5t12 -38.5v-33h228v33q0 26 12 38.5t41 12.5h97q29 0 41 -12.5t12 -38.5v-33h12q21 0 28 -7zM500 477h-228v-64h228v64z" />
    <glyph glyph-name="uni1E2A" unicode="&#x1e2a;" horiz-adv-x="719" 
d="M54.5 12q-11.5 12 -11.5 38v579q0 26 12 38.5t40 12.5h97q29 0 41 -12.5t12 -38.5v-216h228v216q0 26 12 38.5t41 12.5h97q29 0 41 -12.5t12 -38.5v-579q0 -26 -12 -38t-41 -12h-97q-29 0 -41 12t-12 38v218h-228v-218q0 -26 -12 -38t-41 -12h-97q-29 0 -40.5 12z
M219.5 -180q-48.5 48 -48.5 125q0 8 4.5 13t11.5 5h108q10 0 13.5 -4.5t3.5 -14.5q0 -49 48 -49t48 49q0 10 3.5 14.5t13.5 4.5h108q7 0 11.5 -5t4.5 -13q0 -77 -49 -125t-140 -48q-92 0 -140.5 48z" />
    <glyph glyph-name="Hcircumflex" unicode="&#x124;" horiz-adv-x="719" 
d="M154.5 747.5q-8.5 5.5 -8.5 14.5q0 12 12 27l96 125q14 17 22 22t32 5h101q24 0 32.5 -5t21.5 -22l96 -125q12 -15 12 -27q0 -9 -8 -14.5t-23 -5.5h-75q-24 0 -35 5.5t-21 20.5l-50 77l-51 -77q-9 -15 -20 -20.5t-35 -5.5h-75q-15 0 -23.5 5.5zM54.5 12
q-11.5 12 -11.5 38v579q0 26 12 38.5t40 12.5h97q29 0 41 -12.5t12 -38.5v-216h228v216q0 26 12 38.5t41 12.5h97q29 0 41 -12.5t12 -38.5v-579q0 -26 -12 -38t-41 -12h-97q-29 0 -41 12t-12 38v218h-228v-218q0 -26 -12 -38t-41 -12h-97q-29 0 -40.5 12z" />
    <glyph glyph-name="uni1E24" unicode="&#x1e24;" horiz-adv-x="719" 
d="M54.5 12q-11.5 12 -11.5 38v579q0 26 12 38.5t40 12.5h97q29 0 41 -12.5t12 -38.5v-216h228v216q0 26 12 38.5t41 12.5h97q29 0 41 -12.5t12 -38.5v-579q0 -26 -12 -38t-41 -12h-97q-29 0 -41 12t-12 38v218h-228v-218q0 -26 -12 -38t-41 -12h-97q-29 0 -40.5 12z
M307.5 -187.5q-17.5 18.5 -17.5 45.5v25q0 27 17.5 45.5t43.5 18.5h27q27 0 44 -18.5t17 -45.5v-25q0 -27 -17 -45.5t-44 -18.5h-27q-26 0 -43.5 18.5z" />
    <glyph glyph-name="I" unicode="I" horiz-adv-x="288" 
d="M54.5 12q-11.5 12 -11.5 38v579q0 26 12 38.5t40 12.5h97q29 0 41 -12.5t12 -38.5v-579q0 -26 -12 -38t-41 -12h-97q-29 0 -40.5 12z" />
    <glyph glyph-name="IJ" unicode="&#x132;" horiz-adv-x="765" 
d="M54.5 12q-11.5 12 -11.5 38v579q0 26 12 38.5t40 12.5h97q29 0 41 -12.5t12 -38.5v-579q0 -26 -12 -38t-41 -12h-97q-29 0 -40.5 12zM261 45q-11 7 -11 18q0 7 7 21l43 74q7 14 18 14q8 0 18 -8q49 -36 103 -36q79 0 79 80v421q0 26 12 38.5t41 12.5h97q29 0 41 -12.5
t12 -38.5v-422q0 -102 -62 -162t-181 -60q-130 0 -217 60z" />
    <glyph glyph-name="Iacute" unicode="&#xcd;" horiz-adv-x="312" 
d="M66 766q0 8 3 15l44 121q7 20 16.5 27t35.5 7h120q18 0 28.5 -6.5t10.5 -18.5q0 -11 -7 -22l-65 -115q-12 -20 -23 -26.5t-40 -6.5h-89q-34 0 -34 25zM66.5 12q-11.5 12 -11.5 38v579q0 26 12 38.5t40 12.5h97q29 0 41 -12.5t12 -38.5v-579q0 -26 -12 -38t-41 -12h-97
q-29 0 -40.5 12z" />
    <glyph glyph-name="Ibreve" unicode="&#x12c;" horiz-adv-x="312" 
d="M16.5 789q-48.5 48 -48.5 125q0 8 4.5 13t11.5 5h108q10 0 13.5 -4.5t3.5 -14.5q0 -49 48 -49t48 49q0 10 3.5 14.5t13.5 4.5h108q7 0 11.5 -5t4.5 -13q0 -77 -49 -125t-140 -48q-92 0 -140.5 48zM66.5 12q-11.5 12 -11.5 38v579q0 26 12 38.5t40 12.5h97q29 0 41 -12.5
t12 -38.5v-579q0 -26 -12 -38t-41 -12h-97q-29 0 -40.5 12z" />
    <glyph glyph-name="uni01CF" unicode="&#x1cf;" horiz-adv-x="312" 
d="M69 742.5q-8 4.5 -22 21.5l-96 125q-12 17 -12 28q0 19 30 19h77q24 0 34.5 -5t20.5 -20l51 -77l50 77q10 15 20.5 20t34.5 5h77q30 0 30 -19q0 -11 -12 -28l-96 -125q-12 -17 -20.5 -21.5t-33.5 -4.5h-101q-24 0 -32 4.5zM66.5 12q-11.5 12 -11.5 38v579q0 26 12 38.5
t40 12.5h97q29 0 41 -12.5t12 -38.5v-579q0 -26 -12 -38t-41 -12h-97q-29 0 -40.5 12z" />
    <glyph glyph-name="Icircumflex" unicode="&#xce;" horiz-adv-x="312" 
d="M-48.5 754.5q-8.5 5.5 -8.5 14.5q0 12 12 27l96 125q14 17 22 22t32 5h101q24 0 32.5 -5t21.5 -22l96 -125q12 -15 12 -27q0 -9 -8 -14.5t-23 -5.5h-75q-24 0 -35 5.5t-21 20.5l-50 77l-51 -77q-9 -15 -20 -20.5t-35 -5.5h-75q-15 0 -23.5 5.5zM66.5 12
q-11.5 12 -11.5 38v579q0 26 12 38.5t40 12.5h97q29 0 41 -12.5t12 -38.5v-579q0 -26 -12 -38t-41 -12h-97q-29 0 -40.5 12z" />
    <glyph glyph-name="Idieresis" unicode="&#xcf;" horiz-adv-x="312" 
d="M0 752.5q-17 18.5 -17 45.5v25q0 27 17 45.5t44 18.5h27q27 0 44 -18.5t17 -45.5v-25q0 -27 -17 -45.5t-44 -18.5h-27q-27 0 -44 18.5zM214.5 752.5q-17.5 18.5 -17.5 45.5v25q0 27 17.5 45.5t43.5 18.5h27q27 0 44 -18.5t17 -45.5v-25q0 -27 -17 -45.5t-44 -18.5h-27
q-26 0 -43.5 18.5zM66.5 12q-11.5 12 -11.5 38v579q0 26 12 38.5t40 12.5h97q29 0 41 -12.5t12 -38.5v-579q0 -26 -12 -38t-41 -12h-97q-29 0 -40.5 12z" />
    <glyph glyph-name="Idotaccent" unicode="&#x130;" horiz-adv-x="288" 
d="M91 745.5q-17 18.5 -17 45.5v25q0 27 17 45.5t44 18.5h27q27 0 44 -18.5t17 -45.5v-25q0 -27 -17 -45.5t-44 -18.5h-27q-27 0 -44 18.5zM54.5 12q-11.5 12 -11.5 38v579q0 26 12 38.5t40 12.5h97q29 0 41 -12.5t12 -38.5v-579q0 -26 -12 -38t-41 -12h-97q-29 0 -40.5 12z
" />
    <glyph glyph-name="uni1ECA" unicode="&#x1eca;" horiz-adv-x="288" 
d="M54.5 12q-11.5 12 -11.5 38v579q0 26 12 38.5t40 12.5h97q29 0 41 -12.5t12 -38.5v-579q0 -26 -12 -38t-41 -12h-97q-29 0 -40.5 12zM86.5 -187.5q-17.5 18.5 -17.5 45.5v25q0 27 17.5 45.5t43.5 18.5h27q27 0 44 -18.5t17 -45.5v-25q0 -27 -17 -45.5t-44 -18.5h-27
q-26 0 -43.5 18.5z" />
    <glyph glyph-name="Igrave" unicode="&#xcc;" horiz-adv-x="288" 
d="M67 747.5q-11 6.5 -23 26.5l-65 115q-7 11 -7 22q0 12 10.5 18.5t28.5 6.5h120q26 0 35.5 -7t16.5 -27l44 -121q3 -9 3 -16q0 -11 -8.5 -17.5t-25.5 -6.5h-89q-29 0 -40 6.5zM54.5 12q-11.5 12 -11.5 38v579q0 26 12 38.5t40 12.5h97q29 0 41 -12.5t12 -38.5v-579
q0 -26 -12 -38t-41 -12h-97q-29 0 -40.5 12z" />
    <glyph glyph-name="uni1EC8" unicode="&#x1ec8;" horiz-adv-x="288" 
d="M89 749v52q0 17 7.5 24t28.5 7q26 0 37.5 5.5t11.5 20.5q0 22 -36 22q-29 0 -67 -18q-8 -3 -12 3l-27 63q-2 4 -2 6q0 5 6 8q21 14 56.5 22.5t68.5 8.5q71 0 106.5 -27.5t35.5 -79.5q0 -46 -26.5 -73.5t-65.5 -27.5v-16q0 -23 -23 -23h-76q-23 0 -23 23zM54.5 12
q-11.5 12 -11.5 38v579q0 26 12 38.5t40 12.5h97q29 0 41 -12.5t12 -38.5v-579q0 -26 -12 -38t-41 -12h-97q-29 0 -40.5 12z" />
    <glyph glyph-name="Imacron" unicode="&#x12a;" horiz-adv-x="313" 
d="M-17 758.5q-10 11.5 -10 37.5v47q0 26 10 38t38 12h269q28 0 38.5 -12t10.5 -38v-47q0 -26 -10.5 -37.5t-38.5 -11.5h-269q-28 0 -38 11.5zM67 12q-12 12 -12 38v579q0 26 12 38.5t41 12.5h96q29 0 41.5 -12.5t12.5 -38.5v-579q0 -26 -12.5 -38t-41.5 -12h-96
q-29 0 -41 12z" />
    <glyph glyph-name="Iogonek" unicode="&#x12e;" horiz-adv-x="288" 
d="M233 667.5q12 -12.5 12 -38.5v-579q0 -22 -8 -33.5t-27 -15.5q3 -3 -2 -10q-38 -47 -49.5 -65t-11.5 -38q0 -27 24 -27q14 0 22 4q6 2 7 2q4 0 7 -7l21 -45q2 -4 2 -6q0 -6 -12 -11q-35 -16 -102 -16q-50 0 -75.5 25t-25.5 64q0 28 14.5 57t46.5 66l6 7q-21 2 -30 14
t-9 35v579q0 26 12 38.5t40 12.5h97q29 0 41 -12.5z" />
    <glyph glyph-name="Itilde" unicode="&#x128;" horiz-adv-x="312" 
d="M197 723.5q-19 6.5 -47 20.5q-23 11 -39 17t-32 6q-18 0 -29.5 -7t-27.5 -25q-11 -12 -23 -12q-18 0 -52 27q-17 12 -24.5 22t-7.5 20q0 14 13 31q31 43 59 62.5t68 19.5q29 0 52.5 -8t50.5 -22q23 -11 35 -15.5t26 -4.5q17 0 28 7t28 27q11 13 23 13q17 0 52 -26
q17 -13 24.5 -23t7.5 -20q0 -15 -13 -32q-31 -45 -59.5 -64.5t-71.5 -19.5q-22 0 -41 6.5zM66.5 12q-11.5 12 -11.5 38v579q0 26 12 38.5t40 12.5h97q29 0 41 -12.5t12 -38.5v-579q0 -26 -12 -38t-41 -12h-97q-29 0 -40.5 12z" />
    <glyph glyph-name="J" unicode="J" horiz-adv-x="512" 
d="M14 45q-11 7 -11 18q0 7 7 21l43 74q7 14 18 14q8 0 18 -8q49 -36 103 -36q79 0 79 80v421q0 26 12 38.5t41 12.5h97q29 0 41 -12.5t12 -38.5v-422q0 -102 -62 -162t-181 -60q-130 0 -217 60z" />
    <glyph glyph-name="Jcircumflex" unicode="&#x134;" horiz-adv-x="581" 
d="M171.5 747.5q-8.5 5.5 -8.5 14.5q0 12 12 27l96 125q14 17 22 22t32 5h101q24 0 32.5 -5t21.5 -22l96 -125q12 -15 12 -27q0 -9 -8 -14.5t-23 -5.5h-75q-24 0 -35 5.5t-21 20.5l-50 77l-51 -77q-9 -15 -20 -20.5t-35 -5.5h-75q-15 0 -23.5 5.5zM14 45q-11 7 -11 18
q0 7 7 21l43 74q7 14 18 14q8 0 18 -8q49 -36 103 -36q79 0 79 80v421q0 26 12 38.5t41 12.5h97q29 0 41 -12.5t12 -38.5v-422q0 -102 -62 -162t-181 -60q-130 0 -217 60z" />
    <glyph glyph-name="K" unicode="K" horiz-adv-x="659" 
d="M651 19q0 -9 -5.5 -14t-15.5 -5h-155q-14 0 -21 2.5t-13 10.5l-196 282v-245q0 -26 -12 -38t-41 -12h-97q-29 0 -40.5 12t-11.5 38v579q0 26 12 38.5t40 12.5h97q29 0 41 -12.5t12 -38.5v-240l188 277q5 8 12.5 11t22.5 3h154q10 0 15.5 -5t5.5 -14q0 -11 -7 -19
l-214 -299l222 -305q7 -8 7 -19z" />
    <glyph glyph-name="Kcommaaccent" unicode="&#x136;" horiz-adv-x="659" 
d="M651 19q0 -9 -5.5 -14t-15.5 -5h-155q-14 0 -21 2.5t-13 10.5l-196 282v-245q0 -26 -12 -38t-41 -12h-97q-29 0 -40.5 12t-11.5 38v579q0 26 12 38.5t40 12.5h97q29 0 41 -12.5t12 -38.5v-240l188 277q5 8 12.5 11t22.5 3h154q10 0 15.5 -5t5.5 -14q0 -11 -7 -19
l-214 -299l222 -305q7 -8 7 -19zM412 -41q9 -5 9 -16q0 -10 -8 -29l-66 -155q-5 -12 -13.5 -17.5t-25.5 -5.5h-76q-26 0 -26 20q0 3 2 13l45 158q7 22 17 29.5t33 7.5h80q20 0 29 -5z" />
    <glyph glyph-name="L" unicode="L" horiz-adv-x="554" 
d="M54.5 12q-11.5 12 -11.5 38v579q0 26 12 38.5t40 12.5h97q29 0 41 -12.5t12 -38.5v-484h258q28 0 38 -11.5t10 -38.5v-46q0 -26 -10 -37.5t-38 -11.5h-408q-29 0 -40.5 12z" />
    <glyph glyph-name="Lacute" unicode="&#x139;" horiz-adv-x="554" 
d="M81 742q0 8 3 15l44 121q7 20 16.5 27t35.5 7h120q18 0 28.5 -6.5t10.5 -18.5q0 -11 -7 -22l-65 -115q-12 -20 -23 -26.5t-40 -6.5h-89q-34 0 -34 25zM54.5 12q-11.5 12 -11.5 38v579q0 26 12 38.5t40 12.5h97q29 0 41 -12.5t12 -38.5v-484h258q28 0 38 -11.5t10 -38.5
v-46q0 -26 -10 -37.5t-38 -11.5h-408q-29 0 -40.5 12z" />
    <glyph glyph-name="Lcaron" unicode="&#x13d;" horiz-adv-x="586" 
d="M349 519q0 3 2 13l45 158q7 22 17 29.5t33 7.5h80q20 0 29 -5t9 -16q0 -10 -8 -29l-66 -155q-5 -12 -13.5 -17.5t-25.5 -5.5h-76q-26 0 -26 20zM54.5 12q-11.5 12 -11.5 38v579q0 26 12 38.5t40 12.5h97q29 0 41 -12.5t12 -38.5v-484h258q28 0 38 -11.5t10 -38.5v-46
q0 -26 -10 -37.5t-38 -11.5h-408q-29 0 -40.5 12z" />
    <glyph glyph-name="Lcommaaccent" unicode="&#x13b;" horiz-adv-x="554" 
d="M54.5 12q-11.5 12 -11.5 38v579q0 26 12 38.5t40 12.5h97q29 0 41 -12.5t12 -38.5v-484h258q28 0 38 -11.5t10 -38.5v-46q0 -26 -10 -37.5t-38 -11.5h-408q-29 0 -40.5 12zM180 -244q0 3 2 13l45 158q7 22 17 29.5t33 7.5h80q20 0 29 -5t9 -16q0 -10 -8 -29l-66 -155
q-5 -12 -13.5 -17.5t-25.5 -5.5h-76q-26 0 -26 20z" />
    <glyph glyph-name="Ldot" unicode="&#x13f;" horiz-adv-x="554" 
d="M54.5 12q-11.5 12 -11.5 38v579q0 26 12 38.5t40 12.5h97q29 0 41 -12.5t12 -38.5v-484h258q28 0 38 -11.5t10 -38.5v-46q0 -26 -10 -37.5t-38 -11.5h-408q-29 0 -40.5 12zM347 297.5q-17 18.5 -17 45.5v25q0 27 17 45.5t44 18.5h26q27 0 44 -18.5t17 -45.5v-25
q0 -27 -17 -45.5t-44 -18.5h-26q-27 0 -44 18.5z" />
    <glyph glyph-name="uni1E36" unicode="&#x1e36;" horiz-adv-x="554" 
d="M54.5 12q-11.5 12 -11.5 38v579q0 26 12 38.5t40 12.5h97q29 0 41 -12.5t12 -38.5v-484h258q28 0 38 -11.5t10 -38.5v-46q0 -26 -10 -37.5t-38 -11.5h-408q-29 0 -40.5 12zM253.5 -187.5q-17.5 18.5 -17.5 45.5v25q0 27 17.5 45.5t43.5 18.5h27q27 0 44 -18.5t17 -45.5
v-25q0 -27 -17 -45.5t-44 -18.5h-27q-26 0 -43.5 18.5z" />
    <glyph glyph-name="uni1E38" unicode="&#x1e38;" horiz-adv-x="555" 
d="M-27.5 752.5q-10.5 11.5 -10.5 38.5v46q0 27 10.5 38.5t38.5 11.5h269q28 0 38 -11.5t10 -38.5v-46q0 -27 -10 -38.5t-38 -11.5h-269q-28 0 -38.5 11.5zM54.5 12q-11.5 12 -11.5 38v579q0 26 12 38.5t40 12.5h97q29 0 41 -12.5t12 -38.5v-484h258q28 0 38 -11.5t10 -38.5
v-46q0 -26 -10 -37.5t-38 -11.5h-408q-29 0 -40.5 12zM254.5 -187.5q-17.5 18.5 -17.5 45.5v25q0 27 17.5 45.5t43.5 18.5h27q27 0 44 -18.5t17 -45.5v-25q0 -27 -17 -45.5t-44 -18.5h-27q-26 0 -43.5 18.5z" />
    <glyph glyph-name="uni1E3A" unicode="&#x1e3a;" horiz-adv-x="554" 
d="M54.5 12q-11.5 12 -11.5 38v579q0 26 12 38.5t40 12.5h97q29 0 41 -12.5t12 -38.5v-484h258q28 0 38 -11.5t10 -38.5v-46q0 -26 -10 -37.5t-38 -11.5h-408q-29 0 -40.5 12zM116 -175.5q-10 11.5 -10 37.5v31q0 26 10 38t38 12h243q28 0 38.5 -12t10.5 -38v-31
q0 -26 -10.5 -37.5t-38.5 -11.5h-243q-28 0 -38 11.5z" />
    <glyph glyph-name="Lslash" unicode="&#x141;" horiz-adv-x="642" 
d="M628.5 133.5q10.5 -11.5 10.5 -38.5v-46q0 -26 -10.5 -37.5t-38.5 -11.5h-407q-29 0 -41 12t-12 38v156l-14 -8q-10 -5 -15 -5q-8 0 -15 11l-47 79q-5 8 -5 14q0 10 13 16l83 47v269q0 26 12 38.5t41 12.5h96q29 0 41.5 -12.5t12.5 -38.5v-154l79 45q8 5 13 5q8 0 17 -13
l48 -79q4 -5 4 -11q0 -9 -14 -17l-147 -84v-176h257q28 0 38.5 -11.5z" />
    <glyph glyph-name="M" unicode="M" horiz-adv-x="771" 
d="M54.5 12q-11.5 12 -11.5 38v580q0 26 12 38t41 12h95q20 0 31.5 -5t17.5 -20l145 -350l146 350q6 15 17.5 20t31.5 5h95q29 0 41 -12t12 -38v-580q0 -26 -11.5 -38t-40.5 -12h-79q-29 0 -41 12t-12 38v325l-97 -217q-10 -25 -22 -35.5t-40 -10.5q-27 0 -39 10.5t-23 35.5
l-96 217v-325q0 -26 -12 -38t-41 -12h-79q-29 0 -40.5 12z" />
    <glyph glyph-name="uni1E42" unicode="&#x1e42;" horiz-adv-x="771" 
d="M54.5 12q-11.5 12 -11.5 38v580q0 26 12 38t41 12h95q20 0 31.5 -5t17.5 -20l145 -350l146 350q6 15 17.5 20t31.5 5h95q29 0 41 -12t12 -38v-580q0 -26 -11.5 -38t-40.5 -12h-79q-29 0 -41 12t-12 38v325l-97 -217q-10 -25 -22 -35.5t-40 -10.5q-27 0 -39 10.5t-23 35.5
l-96 217v-325q0 -26 -12 -38t-41 -12h-79q-29 0 -40.5 12zM334.5 -187.5q-17.5 18.5 -17.5 45.5v25q0 27 17.5 45.5t43.5 18.5h27q27 0 44 -18.5t17 -45.5v-25q0 -27 -17 -45.5t-44 -18.5h-27q-26 0 -43.5 18.5z" />
    <glyph glyph-name="N" unicode="N" horiz-adv-x="700" 
d="M54.5 12q-11.5 12 -11.5 38v580q0 26 12 38t41 12h79q18 0 28.5 -5t20.5 -20l231 -332v306q0 26 12 38.5t40 12.5h97q29 0 41 -12.5t12 -38.5v-580q0 -26 -12 -37.5t-41 -11.5h-79q-19 0 -29 4.5t-20 19.5l-231 332v-307q0 -26 -12 -37.5t-41 -11.5h-97q-29 0 -40.5 12z
" />
    <glyph glyph-name="Nacute" unicode="&#x143;" horiz-adv-x="700" 
d="M252 754q0 8 3 15l44 121q7 20 16.5 27t35.5 7h120q18 0 28.5 -6.5t10.5 -18.5q0 -11 -7 -22l-65 -115q-12 -20 -23 -26.5t-40 -6.5h-89q-34 0 -34 25zM54.5 12q-11.5 12 -11.5 38v580q0 26 12 38t41 12h79q18 0 28.5 -5t20.5 -20l231 -332v306q0 26 12 38.5t40 12.5h97
q29 0 41 -12.5t12 -38.5v-580q0 -26 -12 -37.5t-41 -11.5h-79q-19 0 -29 4.5t-20 19.5l-231 332v-307q0 -26 -12 -37.5t-41 -11.5h-97q-29 0 -40.5 12z" />
    <glyph glyph-name="Ncaron" unicode="&#x147;" horiz-adv-x="700" 
d="M267 742.5q-8 4.5 -22 21.5l-96 125q-12 17 -12 28q0 19 30 19h77q24 0 34.5 -5t20.5 -20l51 -77l50 77q10 15 20.5 20t34.5 5h77q30 0 30 -19q0 -11 -12 -28l-96 -125q-12 -17 -20.5 -21.5t-33.5 -4.5h-101q-24 0 -32 4.5zM54.5 12q-11.5 12 -11.5 38v580q0 26 12 38
t41 12h79q18 0 28.5 -5t20.5 -20l231 -332v306q0 26 12 38.5t40 12.5h97q29 0 41 -12.5t12 -38.5v-580q0 -26 -12 -37.5t-41 -11.5h-79q-19 0 -29 4.5t-20 19.5l-231 332v-307q0 -26 -12 -37.5t-41 -11.5h-97q-29 0 -40.5 12z" />
    <glyph glyph-name="Ncommaaccent" unicode="&#x145;" horiz-adv-x="700" 
d="M54.5 12q-11.5 12 -11.5 38v580q0 26 12 38t41 12h79q18 0 28.5 -5t20.5 -20l231 -332v306q0 26 12 38.5t40 12.5h97q29 0 41 -12.5t12 -38.5v-580q0 -26 -12 -37.5t-41 -11.5h-79q-19 0 -29 4.5t-20 19.5l-231 332v-307q0 -26 -12 -37.5t-41 -11.5h-97q-29 0 -40.5 12z
M238 -244q0 3 2 13l45 158q7 22 17 29.5t33 7.5h80q20 0 29 -5t9 -16q0 -10 -8 -29l-66 -155q-5 -12 -13.5 -17.5t-25.5 -5.5h-76q-26 0 -26 20z" />
    <glyph glyph-name="uni1E44" unicode="&#x1e44;" horiz-adv-x="700" 
d="M293 757.5q-17 18.5 -17 45.5v25q0 27 17 45.5t44 18.5h27q27 0 44 -18.5t17 -45.5v-25q0 -27 -17 -45.5t-44 -18.5h-27q-27 0 -44 18.5zM54.5 12q-11.5 12 -11.5 38v580q0 26 12 38t41 12h79q18 0 28.5 -5t20.5 -20l231 -332v306q0 26 12 38.5t40 12.5h97q29 0 41 -12.5
t12 -38.5v-580q0 -26 -12 -37.5t-41 -11.5h-79q-19 0 -29 4.5t-20 19.5l-231 332v-307q0 -26 -12 -37.5t-41 -11.5h-97q-29 0 -40.5 12z" />
    <glyph glyph-name="uni1E46" unicode="&#x1e46;" horiz-adv-x="700" 
d="M54.5 12q-11.5 12 -11.5 38v580q0 26 12 38t41 12h79q18 0 28.5 -5t20.5 -20l231 -332v306q0 26 12 38.5t40 12.5h97q29 0 41 -12.5t12 -38.5v-580q0 -26 -12 -37.5t-41 -11.5h-79q-19 0 -29 4.5t-20 19.5l-231 332v-307q0 -26 -12 -37.5t-41 -11.5h-97q-29 0 -40.5 12z
M307.5 -187.5q-17.5 18.5 -17.5 45.5v25q0 27 17.5 45.5t43.5 18.5h27q27 0 44 -18.5t17 -45.5v-25q0 -27 -17 -45.5t-44 -18.5h-27q-26 0 -43.5 18.5z" />
    <glyph glyph-name="Eng" unicode="&#x14a;" horiz-adv-x="700" 
d="M196 -183q-10 7 -10 18q0 7 7 21l43 74q9 14 18 14q7 0 18 -8q45 -31 104 -31q79 0 79 80v71l-210 300v-307q0 -26 -12 -37.5t-41 -11.5h-97q-29 0 -40.5 12t-11.5 38v580q0 26 12 38t41 12h79q18 0 28.5 -5t20.5 -20l231 -332v306q0 26 12 38.5t40 12.5h97
q29 0 41 -12.5t12 -38.5v-645q0 -102 -61.5 -162.5t-180.5 -60.5q-138 0 -219 56z" />
    <glyph glyph-name="uni1E48" unicode="&#x1e48;" horiz-adv-x="700" 
d="M54.5 12q-11.5 12 -11.5 38v580q0 26 12 38t41 12h79q18 0 28.5 -5t20.5 -20l231 -332v306q0 26 12 38.5t40 12.5h97q29 0 41 -12.5t12 -38.5v-580q0 -26 -12 -37.5t-41 -11.5h-79q-19 0 -29 4.5t-20 19.5l-231 332v-307q0 -26 -12 -37.5t-41 -11.5h-97q-29 0 -40.5 12z
M190 -175.5q-10 11.5 -10 37.5v31q0 26 10 38t38 12h243q28 0 38.5 -12t10.5 -38v-31q0 -26 -10.5 -37.5t-38.5 -11.5h-243q-28 0 -38 11.5z" />
    <glyph glyph-name="Ntilde" unicode="&#xd1;" horiz-adv-x="700" 
d="M400 747.5q-19 6.5 -47 20.5q-23 11 -39 17t-32 6q-18 0 -29.5 -7t-27.5 -25q-11 -12 -23 -12q-17 0 -52 27q-17 12 -24.5 22t-7.5 20q0 14 13 31q31 43 59 62.5t68 19.5q29 0 52.5 -8t50.5 -22q23 -11 35 -15.5t26 -4.5q17 0 28 7t28 27q11 13 23 13q17 0 52 -26
q17 -13 24.5 -23t7.5 -20q0 -15 -13 -32q-31 -45 -59.5 -64.5t-71.5 -19.5q-22 0 -41 6.5zM54.5 12q-11.5 12 -11.5 38v580q0 26 12 38t41 12h79q18 0 28.5 -5t20.5 -20l231 -332v306q0 26 12 38.5t40 12.5h97q29 0 41 -12.5t12 -38.5v-580q0 -26 -12 -37.5t-41 -11.5h-79
q-19 0 -29 4.5t-20 19.5l-231 332v-307q0 -26 -12 -37.5t-41 -11.5h-97q-29 0 -40.5 12z" />
    <glyph glyph-name="O" unicode="O" horiz-adv-x="756" 
d="M113.5 77.5q-90.5 92.5 -90.5 262.5t90.5 262.5t264.5 92.5t264.5 -92.5t90.5 -262.5t-90.5 -262.5t-264.5 -92.5t-264.5 92.5zM494.5 181q37.5 53 37.5 159q0 105 -37.5 158t-116.5 53t-116.5 -53t-37.5 -158q0 -106 37.5 -159t116.5 -53t116.5 53z" />
    <glyph glyph-name="Oacute" unicode="&#xd3;" horiz-adv-x="756" 
d="M288 766q0 8 3 15l44 121q7 20 16.5 27t35.5 7h120q18 0 28.5 -6.5t10.5 -18.5q0 -11 -7 -22l-65 -115q-12 -20 -23 -26.5t-40 -6.5h-89q-34 0 -34 25zM113.5 77.5q-90.5 92.5 -90.5 262.5t90.5 262.5t264.5 92.5t264.5 -92.5t90.5 -262.5t-90.5 -262.5t-264.5 -92.5
t-264.5 92.5zM494.5 181q37.5 53 37.5 159q0 105 -37.5 158t-116.5 53t-116.5 -53t-37.5 -158q0 -106 37.5 -159t116.5 -53t116.5 53z" />
    <glyph glyph-name="Obreve" unicode="&#x14e;" horiz-adv-x="756" 
d="M239.5 780q-48.5 48 -48.5 125q0 8 4.5 13t11.5 5h108q10 0 13.5 -4.5t3.5 -14.5q0 -49 48 -49t48 49q0 10 3.5 14.5t13.5 4.5h108q7 0 11.5 -5t4.5 -13q0 -77 -49 -125t-140 -48q-92 0 -140.5 48zM113.5 77.5q-90.5 92.5 -90.5 262.5t90.5 262.5t264.5 92.5t264.5 -92.5
t90.5 -262.5t-90.5 -262.5t-264.5 -92.5t-264.5 92.5zM494.5 181q37.5 53 37.5 159q0 105 -37.5 158t-116.5 53t-116.5 -53t-37.5 -158q0 -106 37.5 -159t116.5 -53t116.5 53z" />
    <glyph glyph-name="uni01D1" unicode="&#x1d1;" horiz-adv-x="756" 
d="M297 742.5q-8 4.5 -22 21.5l-96 125q-12 17 -12 28q0 19 30 19h77q24 0 34.5 -5t20.5 -20l51 -77l50 77q10 15 20.5 20t34.5 5h77q30 0 30 -19q0 -11 -12 -28l-96 -125q-12 -17 -20.5 -21.5t-33.5 -4.5h-101q-24 0 -32 4.5zM113.5 77.5q-90.5 92.5 -90.5 262.5
t90.5 262.5t264.5 92.5t264.5 -92.5t90.5 -262.5t-90.5 -262.5t-264.5 -92.5t-264.5 92.5zM494.5 181q37.5 53 37.5 159q0 105 -37.5 158t-116.5 53t-116.5 -53t-37.5 -158q0 -106 37.5 -159t116.5 -53t116.5 53z" />
    <glyph glyph-name="Ocircumflex" unicode="&#xd4;" horiz-adv-x="756" 
d="M175.5 747.5q-8.5 5.5 -8.5 14.5q0 12 12 27l96 125q14 17 22 22t32 5h101q24 0 32.5 -5t21.5 -22l96 -125q12 -15 12 -27q0 -9 -8 -14.5t-23 -5.5h-75q-24 0 -35 5.5t-21 20.5l-50 77l-51 -77q-9 -15 -20 -20.5t-35 -5.5h-75q-15 0 -23.5 5.5zM113.5 77.5
q-90.5 92.5 -90.5 262.5t90.5 262.5t264.5 92.5t264.5 -92.5t90.5 -262.5t-90.5 -262.5t-264.5 -92.5t-264.5 92.5zM494.5 181q37.5 53 37.5 159q0 105 -37.5 158t-116.5 53t-116.5 -53t-37.5 -158q0 -106 37.5 -159t116.5 -53t116.5 53z" />
    <glyph glyph-name="uni1ED0" unicode="&#x1ed0;" horiz-adv-x="756" 
d="M497 921q0 7 2 11l32 87q8 20 15.5 27t29.5 7h74q29 0 29 -21q0 -13 -8 -26l-42 -75q-13 -21 -23 -26.5t-36 -5.5h-44q-29 0 -29 22zM176 763q0 12 12 27l95 119q14 17 22 22t32 5h85q24 0 32.5 -5t21.5 -22l95 -119q12 -15 12 -27q0 -20 -31 -20h-71q-24 0 -35 5t-20 20
l-46 68l-47 -68q-9 -15 -20 -20t-35 -5h-71q-31 0 -31 20zM113.5 77.5q-90.5 92.5 -90.5 262.5t90.5 262.5t264.5 92.5t264.5 -92.5t90.5 -262.5t-90.5 -262.5t-264.5 -92.5t-264.5 92.5zM494.5 181q37.5 53 37.5 159q0 105 -37.5 158t-116.5 53t-116.5 -53t-37.5 -158
q0 -106 37.5 -159t116.5 -53t116.5 53z" />
    <glyph glyph-name="uni1ED8" unicode="&#x1ed8;" horiz-adv-x="756" 
d="M173.5 735.5q-8.5 5.5 -8.5 14.5q0 12 12 27l96 125q14 17 22 22t32 5h101q24 0 32.5 -5t21.5 -22l96 -125q12 -15 12 -27q0 -9 -8 -14.5t-23 -5.5h-75q-24 0 -35 5.5t-21 20.5l-50 77l-51 -77q-9 -15 -20 -20.5t-35 -5.5h-75q-15 0 -23.5 5.5zM113.5 77.5
q-90.5 92.5 -90.5 262.5t90.5 262.5t264.5 92.5t264.5 -92.5t90.5 -262.5t-90.5 -262.5t-264.5 -92.5t-264.5 92.5zM494.5 181q37.5 53 37.5 159q0 105 -37.5 158t-116.5 53t-116.5 -53t-37.5 -158q0 -106 37.5 -159t116.5 -53t116.5 53zM318.5 -187.5
q-17.5 18.5 -17.5 45.5v25q0 27 17.5 45.5t43.5 18.5h27q27 0 44 -18.5t17 -45.5v-25q0 -27 -17 -45.5t-44 -18.5h-27q-26 0 -43.5 18.5z" />
    <glyph glyph-name="uni1ED2" unicode="&#x1ed2;" horiz-adv-x="756" 
d="M154 898.5q-10 5.5 -23 26.5l-42 75q-8 13 -8 26q0 21 29 21h74q22 0 29.5 -7t15.5 -27l32 -87q2 -4 2 -11q0 -22 -29 -22h-44q-26 0 -36 5.5zM177 757q0 12 12 27l95 119q13 17 21.5 22t32.5 5h85q24 0 32 -5t22 -22l95 -119q12 -15 12 -27q0 -20 -31 -20h-71
q-24 0 -35 5t-20 20l-47 68l-46 -68q-9 -15 -20 -20t-35 -5h-71q-31 0 -31 20zM113.5 77.5q-90.5 92.5 -90.5 262.5t90.5 262.5t264.5 92.5t264.5 -92.5t90.5 -262.5t-90.5 -262.5t-264.5 -92.5t-264.5 92.5zM494.5 181q37.5 53 37.5 159q0 105 -37.5 158t-116.5 53
t-116.5 -53t-37.5 -158q0 -106 37.5 -159t116.5 -53t116.5 53z" />
    <glyph glyph-name="uni1ED4" unicode="&#x1ed4;" horiz-adv-x="756" 
d="M504 894v34q0 13 6 18.5t21 5.5q17 0 24.5 4t7.5 14q0 16 -23 16q-27 0 -48 -13q-5 -4 -8 2l-20 44q-4 8 3 11q18 10 44 15.5t53 5.5q101 0 101 -75q0 -32 -19 -49.5t-47 -17.5v-15q0 -17 -17 -17h-61q-17 0 -17 17zM184.5 738q-8.5 5 -8.5 15q0 13 13 27l95 119
q13 17 21.5 22t32.5 5h84q24 0 32.5 -5t21.5 -22l95 -119q12 -15 12 -27q0 -20 -31 -20h-71q-23 0 -34 5t-21 20l-46 68l-47 -68q-9 -15 -20 -20t-35 -5h-71q-14 0 -22.5 5zM113.5 77.5q-90.5 92.5 -90.5 262.5t90.5 262.5t264.5 92.5t264.5 -92.5t90.5 -262.5t-90.5 -262.5
t-264.5 -92.5t-264.5 92.5zM494.5 181q37.5 53 37.5 159q0 105 -37.5 158t-116.5 53t-116.5 -53t-37.5 -158q0 -106 37.5 -159t116.5 -53t116.5 53z" />
    <glyph glyph-name="uni1ED6" unicode="&#x1ed6;" horiz-adv-x="756" 
d="M415 932.5q-16 4.5 -44 15.5q-37 15 -54 15q-18 0 -28 -4.5t-23 -17.5q-14 -16 -25 -16q-7 0 -15.5 4.5t-23.5 15.5q-15 12 -21 19.5t-6 14.5q0 10 12 23q24 32 49.5 46.5t60.5 14.5q24 0 42 -5.5t43 -16.5q3 -1 18.5 -7.5t28.5 -6.5q16 0 26.5 5.5t23.5 20.5
q10 13 21 13q12 0 40 -20q16 -13 22.5 -20.5t6.5 -15.5q0 -9 -12 -26q-23 -32 -45.5 -44t-61.5 -12q-19 0 -35 4.5zM241 776.5q-50 44.5 -50 113.5q0 8 4.5 13t11.5 5h91q10 0 13.5 -4.5t3.5 -14.5q0 -50 65 -50t65 50q0 10 3.5 14.5t13.5 4.5h91q7 0 11.5 -5t4.5 -13
q0 -69 -50 -113.5t-139 -44.5t-139 44.5zM113.5 77.5q-90.5 92.5 -90.5 262.5t90.5 262.5t264.5 92.5t264.5 -92.5t90.5 -262.5t-90.5 -262.5t-264.5 -92.5t-264.5 92.5zM494.5 181q37.5 53 37.5 159q0 105 -37.5 158t-116.5 53t-116.5 -53t-37.5 -158q0 -106 37.5 -159
t116.5 -53t116.5 53z" />
    <glyph glyph-name="Odieresis" unicode="&#xd6;" horiz-adv-x="756" 
d="M215 752.5q-17 18.5 -17 45.5v25q0 27 17 45.5t44 18.5h27q27 0 44 -18.5t17 -45.5v-25q0 -27 -17 -45.5t-44 -18.5h-27q-27 0 -44 18.5zM429.5 752.5q-17.5 18.5 -17.5 45.5v25q0 27 17.5 45.5t43.5 18.5h27q27 0 44 -18.5t17 -45.5v-25q0 -27 -17 -45.5t-44 -18.5h-27
q-26 0 -43.5 18.5zM113.5 77.5q-90.5 92.5 -90.5 262.5t90.5 262.5t264.5 92.5t264.5 -92.5t90.5 -262.5t-90.5 -262.5t-264.5 -92.5t-264.5 92.5zM494.5 181q37.5 53 37.5 159q0 105 -37.5 158t-116.5 53t-116.5 -53t-37.5 -158q0 -106 37.5 -159t116.5 -53t116.5 53z" />
    <glyph glyph-name="uni1ECC" unicode="&#x1ecc;" horiz-adv-x="756" 
d="M113.5 77.5q-90.5 92.5 -90.5 262.5t90.5 262.5t264.5 92.5t264.5 -92.5t90.5 -262.5t-90.5 -262.5t-264.5 -92.5t-264.5 92.5zM494.5 181q37.5 53 37.5 159q0 105 -37.5 158t-116.5 53t-116.5 -53t-37.5 -158q0 -106 37.5 -159t116.5 -53t116.5 53zM318.5 -187.5
q-17.5 18.5 -17.5 45.5v25q0 27 17.5 45.5t43.5 18.5h27q27 0 44 -18.5t17 -45.5v-25q0 -27 -17 -45.5t-44 -18.5h-27q-26 0 -43.5 18.5z" />
    <glyph glyph-name="Ograve" unicode="&#xd2;" horiz-adv-x="756" 
d="M316 747.5q-11 6.5 -23 26.5l-65 115q-7 11 -7 22q0 12 10.5 18.5t28.5 6.5h120q26 0 35.5 -7t16.5 -27l44 -121q3 -9 3 -16q0 -11 -8.5 -17.5t-25.5 -6.5h-89q-29 0 -40 6.5zM113.5 77.5q-90.5 92.5 -90.5 262.5t90.5 262.5t264.5 92.5t264.5 -92.5t90.5 -262.5
t-90.5 -262.5t-264.5 -92.5t-264.5 92.5zM494.5 181q37.5 53 37.5 159q0 105 -37.5 158t-116.5 53t-116.5 -53t-37.5 -158q0 -106 37.5 -159t116.5 -53t116.5 53z" />
    <glyph glyph-name="uni1ECE" unicode="&#x1ece;" horiz-adv-x="756" 
d="M325 749v52q0 17 7.5 24t28.5 7q26 0 37.5 5.5t11.5 20.5q0 22 -36 22q-29 0 -67 -18q-8 -3 -12 3l-27 63q-2 4 -2 6q0 5 6 8q21 14 56.5 22.5t68.5 8.5q71 0 106.5 -27.5t35.5 -79.5q0 -46 -26.5 -73.5t-65.5 -27.5v-16q0 -23 -23 -23h-76q-23 0 -23 23zM113.5 77.5
q-90.5 92.5 -90.5 262.5t90.5 262.5t264.5 92.5t264.5 -92.5t90.5 -262.5t-90.5 -262.5t-264.5 -92.5t-264.5 92.5zM494.5 181q37.5 53 37.5 159q0 105 -37.5 158t-116.5 53t-116.5 -53t-37.5 -158q0 -106 37.5 -159t116.5 -53t116.5 53z" />
    <glyph glyph-name="Ohorn" unicode="&#x1a0;" horiz-adv-x="811" 
d="M113.5 77.5q-90.5 92.5 -90.5 262.5t90.5 262.5t264.5 92.5q142 0 229 -64q27 6 38 25t11 58q0 21 5.5 28t19.5 7h108q17 0 23 -7t6 -29q0 -77 -27.5 -126.5t-90.5 -72.5q33 -73 33 -174q0 -170 -90.5 -262.5t-264.5 -92.5t-264.5 92.5zM494.5 181q37.5 53 37.5 159
q0 105 -37.5 158t-116.5 53t-116.5 -53t-37.5 -158q0 -106 37.5 -159t116.5 -53t116.5 53z" />
    <glyph glyph-name="uni1EDA" unicode="&#x1eda;" horiz-adv-x="811" 
d="M303 762q0 8 3 15l44 121q7 20 16.5 27t35.5 7h120q18 0 28.5 -6.5t10.5 -18.5q0 -11 -7 -22l-65 -115q-12 -20 -23 -26.5t-40 -6.5h-89q-34 0 -34 25zM113.5 77.5q-90.5 92.5 -90.5 262.5t90.5 262.5t264.5 92.5q142 0 229 -64q27 6 38 25t11 58q0 21 5.5 28t19.5 7h108
q17 0 23 -7t6 -29q0 -77 -27.5 -126.5t-90.5 -72.5q33 -73 33 -174q0 -170 -90.5 -262.5t-264.5 -92.5t-264.5 92.5zM494.5 181q37.5 53 37.5 159q0 105 -37.5 158t-116.5 53t-116.5 -53t-37.5 -158q0 -106 37.5 -159t116.5 -53t116.5 53z" />
    <glyph glyph-name="uni1EE2" unicode="&#x1ee2;" horiz-adv-x="811" 
d="M113.5 77.5q-90.5 92.5 -90.5 262.5t90.5 262.5t264.5 92.5q142 0 229 -64q27 6 38 25t11 58q0 21 5.5 28t19.5 7h108q17 0 23 -7t6 -29q0 -77 -27.5 -126.5t-90.5 -72.5q33 -73 33 -174q0 -170 -90.5 -262.5t-264.5 -92.5t-264.5 92.5zM494.5 181q37.5 53 37.5 159
q0 105 -37.5 158t-116.5 53t-116.5 -53t-37.5 -158q0 -106 37.5 -159t116.5 -53t116.5 53zM319.5 -187.5q-17.5 18.5 -17.5 45.5v25q0 27 17.5 45.5t43.5 18.5h27q27 0 44 -18.5t17 -45.5v-25q0 -27 -17 -45.5t-44 -18.5h-27q-26 0 -43.5 18.5z" />
    <glyph glyph-name="uni1EDC" unicode="&#x1edc;" horiz-adv-x="811" 
d="M330 741.5q-11 6.5 -23 26.5l-65 115q-7 11 -7 22q0 12 10.5 18.5t28.5 6.5h120q26 0 35.5 -7t16.5 -27l44 -121q3 -9 3 -16q0 -11 -8.5 -17.5t-25.5 -6.5h-89q-29 0 -40 6.5zM113.5 77.5q-90.5 92.5 -90.5 262.5t90.5 262.5t264.5 92.5q142 0 229 -64q27 6 38 25t11 58
q0 21 5.5 28t19.5 7h108q17 0 23 -7t6 -29q0 -77 -27.5 -126.5t-90.5 -72.5q33 -73 33 -174q0 -170 -90.5 -262.5t-264.5 -92.5t-264.5 92.5zM494.5 181q37.5 53 37.5 159q0 105 -37.5 158t-116.5 53t-116.5 -53t-37.5 -158q0 -106 37.5 -159t116.5 -53t116.5 53z" />
    <glyph glyph-name="uni1EDE" unicode="&#x1ede;" horiz-adv-x="811" 
d="M308 749v52q0 17 7.5 24t28.5 7q26 0 37.5 5.5t11.5 20.5q0 22 -36 22q-29 0 -67 -18q-8 -3 -12 3l-27 63q-2 4 -2 6q0 5 6 8q21 14 56.5 22.5t68.5 8.5q71 0 106.5 -27.5t35.5 -79.5q0 -46 -26.5 -73.5t-65.5 -27.5v-16q0 -23 -23 -23h-76q-23 0 -23 23zM113.5 77.5
q-90.5 92.5 -90.5 262.5t90.5 262.5t264.5 92.5q142 0 229 -64q27 6 38 25t11 58q0 21 5.5 28t19.5 7h108q17 0 23 -7t6 -29q0 -77 -27.5 -126.5t-90.5 -72.5q33 -73 33 -174q0 -170 -90.5 -262.5t-264.5 -92.5t-264.5 92.5zM494.5 181q37.5 53 37.5 159q0 105 -37.5 158
t-116.5 53t-116.5 -53t-37.5 -158q0 -106 37.5 -159t116.5 -53t116.5 53z" />
    <glyph glyph-name="uni1EE0" unicode="&#x1ee0;" horiz-adv-x="811" 
d="M450 731.5q-19 6.5 -47 20.5q-23 11 -39 17t-32 6q-18 0 -29.5 -7t-27.5 -25q-10 -12 -23 -12q-18 0 -52 27q-17 12 -24.5 22t-7.5 20q0 14 13 31q31 43 59 62.5t68 19.5q29 0 52.5 -8t50.5 -22q23 -11 35 -15.5t26 -4.5q17 0 28 7t28 27q11 13 23 13q17 0 52 -26
q17 -13 24.5 -23t7.5 -20q0 -15 -13 -32q-31 -45 -59.5 -64.5t-71.5 -19.5q-22 0 -41 6.5zM113.5 77.5q-90.5 92.5 -90.5 262.5t90.5 262.5t264.5 92.5q142 0 229 -64q27 6 38 25t11 58q0 21 5.5 28t19.5 7h108q17 0 23 -7t6 -29q0 -77 -27.5 -126.5t-90.5 -72.5
q33 -73 33 -174q0 -170 -90.5 -262.5t-264.5 -92.5t-264.5 92.5zM494.5 181q37.5 53 37.5 159q0 105 -37.5 158t-116.5 53t-116.5 -53t-37.5 -158q0 -106 37.5 -159t116.5 -53t116.5 53z" />
    <glyph glyph-name="Ohungarumlaut" unicode="&#x150;" horiz-adv-x="756" 
d="M196 743.5q-9 6.5 -9 17.5q0 8 4 16l59 121q11 21 19.5 27.5t33.5 6.5h104q18 0 29 -6.5t11 -18.5q0 -10 -9 -22l-80 -115q-11 -15 -17 -21t-16.5 -9t-30.5 -3h-72q-17 0 -26 6.5zM437 743.5q-9 6.5 -9 18.5q0 5 4 15l60 121q8 16 12 21.5t13.5 9t27.5 3.5h103
q18 0 29 -6.5t11 -18.5q0 -11 -8 -22l-81 -115q-15 -21 -25 -27t-38 -6h-72q-18 0 -27 6.5zM113.5 77.5q-90.5 92.5 -90.5 262.5t90.5 262.5t264.5 92.5t264.5 -92.5t90.5 -262.5t-90.5 -262.5t-264.5 -92.5t-264.5 92.5zM494.5 181q37.5 53 37.5 159q0 105 -37.5 158
t-116.5 53t-116.5 -53t-37.5 -158q0 -106 37.5 -159t116.5 -53t116.5 53z" />
    <glyph glyph-name="Omacron" unicode="&#x14c;" horiz-adv-x="756" 
d="M206.5 752.5q-10.5 11.5 -10.5 38.5v46q0 27 10.5 38.5t38.5 11.5h269q28 0 38 -11.5t10 -38.5v-46q0 -27 -10 -38.5t-38 -11.5h-269q-28 0 -38.5 11.5zM113.5 77.5q-90.5 92.5 -90.5 262.5t90.5 262.5t264.5 92.5t264.5 -92.5t90.5 -262.5t-90.5 -262.5t-264.5 -92.5
t-264.5 92.5zM494.5 181q37.5 53 37.5 159q0 105 -37.5 158t-116.5 53t-116.5 -53t-37.5 -158q0 -106 37.5 -159t116.5 -53t116.5 53z" />
    <glyph glyph-name="Oslash" unicode="&#xd8;" horiz-adv-x="756" 
d="M698.5 521q34.5 -76 34.5 -181q0 -170 -90.5 -262.5t-264.5 -92.5q-16 0 -48 2l-21 -53q-8 -20 -29 -20h-145q-17 0 -17 15q0 4 4 16l38 95q-68 43 -102.5 119t-34.5 181q0 170 90.5 262.5t264.5 92.5q16 0 48 -2l15 38q8 20 30 20h144q17 0 17 -14q0 -9 -4 -17l-32 -80
q68 -43 102.5 -119zM238 231l130 320q-73 -4 -108.5 -56.5t-35.5 -154.5q0 -62 14 -109zM496.5 185q35.5 53 35.5 155q0 62 -14 109l-130 -321q73 4 108.5 57z" />
    <glyph glyph-name="Oslashacute" unicode="&#x1fe;" horiz-adv-x="756" 
d="M252 752q0 8 3 15l44 121q7 20 16.5 27t35.5 7h120q18 0 28.5 -6.5t10.5 -18.5q0 -11 -7 -22l-65 -115q-12 -20 -23 -26.5t-40 -6.5h-89q-34 0 -34 25zM698.5 521q34.5 -76 34.5 -181q0 -170 -90.5 -262.5t-264.5 -92.5q-16 0 -48 2l-21 -53q-8 -20 -29 -20h-145
q-17 0 -17 15q0 4 4 16l38 95q-68 43 -102.5 119t-34.5 181q0 170 90.5 262.5t264.5 92.5q16 0 48 -2l15 38q8 20 30 20h144q17 0 17 -14q0 -9 -4 -17l-32 -80q68 -43 102.5 -119zM238 231l130 320q-73 -4 -108.5 -56.5t-35.5 -154.5q0 -62 14 -109zM496.5 185
q35.5 53 35.5 155q0 62 -14 109l-130 -321q73 4 108.5 57z" />
    <glyph glyph-name="Otilde" unicode="&#xd5;" horiz-adv-x="756" 
d="M431 747.5q-19 6.5 -47 20.5q-23 11 -39 17t-32 6q-18 0 -29.5 -7t-27.5 -25q-10 -12 -23 -12q-17 0 -52 27q-17 12 -24.5 22t-7.5 20q0 14 13 31q31 43 59 62.5t68 19.5q29 0 52.5 -8t50.5 -22q23 -11 35 -15.5t26 -4.5q17 0 28 7t28 27q11 13 23 13q17 0 52 -26
q17 -13 24.5 -23t7.5 -20q0 -15 -13 -32q-31 -45 -59.5 -64.5t-71.5 -19.5q-22 0 -41 6.5zM113.5 77.5q-90.5 92.5 -90.5 262.5t90.5 262.5t264.5 92.5t264.5 -92.5t90.5 -262.5t-90.5 -262.5t-264.5 -92.5t-264.5 92.5zM494.5 181q37.5 53 37.5 159q0 105 -37.5 158
t-116.5 53t-116.5 -53t-37.5 -158q0 -106 37.5 -159t116.5 -53t116.5 53z" />
    <glyph glyph-name="OE" unicode="&#x152;" horiz-adv-x="1097" 
d="M104.5 603q81.5 92 233.5 92q73 0 132.5 -23t88.5 -64v21q0 26 12 38.5t40 12.5h415q28 0 38 -11.5t10 -38.5v-46q0 -27 -10 -38.5t-38 -11.5h-265v-122h175q28 0 38.5 -11.5t10.5 -38.5v-44q0 -27 -10.5 -38.5t-38.5 -11.5h-175v-123h264q28 0 38 -11.5t10 -38.5v-46
q0 -26 -10 -37.5t-38 -11.5h-414q-29 0 -40.5 12t-11.5 38v23q-27 -42 -86 -65t-135 -23q-152 0 -233.5 92t-81.5 263t81.5 263zM261.5 181q37.5 -53 116.5 -53t116.5 53t37.5 159q0 105 -37.5 158t-116.5 53t-116.5 -53t-37.5 -158q0 -106 37.5 -159z" />
    <glyph glyph-name="P" unicode="P" horiz-adv-x="618" 
d="M54.5 12q-11.5 12 -11.5 38v579q0 26 12 38.5t40 12.5h245q140 0 206 -59t66 -176q0 -116 -65.5 -174.5t-206.5 -58.5h-95v-162q0 -26 -12 -38t-41 -12h-97q-29 0 -40.5 12zM324 357q41 0 63.5 22t22.5 66q0 45 -22.5 67t-63.5 22h-79v-177h79z" />
    <glyph glyph-name="Thorn" unicode="&#xde;" horiz-adv-x="635" 
d="M54.5 12q-11.5 12 -11.5 38v579q0 26 12 38.5t40 12.5h97q29 0 41 -12.5t12 -38.5v-55h95q140 0 206 -59t66 -175t-65.5 -175t-206.5 -59h-95v-56q0 -26 -12 -38t-41 -12h-97q-29 0 -40.5 12zM324 252q41 0 63.5 22t22.5 66t-22.5 66t-63.5 22h-79v-176h79z" />
    <glyph glyph-name="Q" unicode="Q" horiz-adv-x="756" 
d="M368.5 -133.5q-60.5 47.5 -72.5 124.5q-135 20 -204 110t-69 239q0 170 90.5 262.5t264.5 92.5t264.5 -92.5t90.5 -262.5q0 -152 -74 -240.5t-219 -106.5q6 -25 30 -37t56 -12q49 0 84 23q8 5 13 5q6 0 11 -8l46 -72q4 -7 4 -12q0 -7 -11 -15q-30 -23 -65.5 -34.5
t-83.5 -11.5q-95 0 -155.5 47.5zM494.5 181q37.5 53 37.5 159q0 105 -37.5 158t-116.5 53t-116.5 -53t-37.5 -158q0 -106 37.5 -159t116.5 -53t116.5 53z" />
    <glyph glyph-name="R" unicode="R" horiz-adv-x="635" 
d="M54.5 12q-11.5 12 -11.5 38v579q0 26 12 38.5t40 12.5h246q139 0 205 -58t66 -173q0 -143 -110 -197l99 -215q4 -8 4 -16q0 -9 -6.5 -15t-17.5 -6h-140q-15 0 -23.5 4t-12.5 15l-83 203h-77v-172q0 -26 -12 -38t-41 -12h-97q-29 0 -40.5 12zM319 365q91 0 91 84
q0 85 -86 85h-79v-169h74z" />
    <glyph glyph-name="Racute" unicode="&#x154;" horiz-adv-x="635" 
d="M230 754q0 8 3 15l44 121q7 20 16.5 27t35.5 7h120q18 0 28.5 -6.5t10.5 -18.5q0 -11 -7 -22l-65 -115q-12 -20 -23 -26.5t-40 -6.5h-89q-34 0 -34 25zM54.5 12q-11.5 12 -11.5 38v579q0 26 12 38.5t40 12.5h246q139 0 205 -58t66 -173q0 -143 -110 -197l99 -215
q4 -8 4 -16q0 -9 -6.5 -15t-17.5 -6h-140q-15 0 -23.5 4t-12.5 15l-83 203h-77v-172q0 -26 -12 -38t-41 -12h-97q-29 0 -40.5 12zM319 365q91 0 91 84q0 85 -86 85h-79v-169h74z" />
    <glyph glyph-name="Rcaron" unicode="&#x158;" horiz-adv-x="635" 
d="M256 742.5q-8 4.5 -22 21.5l-96 125q-12 17 -12 28q0 19 30 19h77q24 0 34.5 -5t20.5 -20l51 -77l50 77q10 15 20.5 20t34.5 5h77q30 0 30 -19q0 -11 -12 -28l-96 -125q-12 -17 -20.5 -21.5t-33.5 -4.5h-101q-24 0 -32 4.5zM54.5 12q-11.5 12 -11.5 38v579q0 26 12 38.5
t40 12.5h246q139 0 205 -58t66 -173q0 -143 -110 -197l99 -215q4 -8 4 -16q0 -9 -6.5 -15t-17.5 -6h-140q-15 0 -23.5 4t-12.5 15l-83 203h-77v-172q0 -26 -12 -38t-41 -12h-97q-29 0 -40.5 12zM319 365q91 0 91 84q0 85 -86 85h-79v-169h74z" />
    <glyph glyph-name="Rcommaaccent" unicode="&#x156;" horiz-adv-x="635" 
d="M54.5 12q-11.5 12 -11.5 38v579q0 26 12 38.5t40 12.5h246q139 0 205 -58t66 -173q0 -143 -110 -197l99 -215q4 -8 4 -16q0 -9 -6.5 -15t-17.5 -6h-140q-15 0 -23.5 4t-12.5 15l-83 203h-77v-172q0 -26 -12 -38t-41 -12h-97q-29 0 -40.5 12zM319 365q91 0 91 84
q0 85 -86 85h-79v-169h74zM212 -244q0 3 2 13l45 158q7 22 17 29.5t33 7.5h80q20 0 29 -5t9 -16q0 -10 -8 -29l-66 -155q-5 -12 -13.5 -17.5t-25.5 -5.5h-76q-26 0 -26 20z" />
    <glyph glyph-name="uni1E5A" unicode="&#x1e5a;" horiz-adv-x="635" 
d="M54.5 12q-11.5 12 -11.5 38v579q0 26 12 38.5t40 12.5h246q139 0 205 -58t66 -173q0 -143 -110 -197l99 -215q4 -8 4 -16q0 -9 -6.5 -15t-17.5 -6h-140q-15 0 -23.5 4t-12.5 15l-83 203h-77v-172q0 -26 -12 -38t-41 -12h-97q-29 0 -40.5 12zM319 365q91 0 91 84
q0 85 -86 85h-79v-169h74zM253.5 -187.5q-17.5 18.5 -17.5 45.5v25q0 27 17.5 45.5t43.5 18.5h27q27 0 44 -18.5t17 -45.5v-25q0 -27 -17 -45.5t-44 -18.5h-27q-26 0 -43.5 18.5z" />
    <glyph glyph-name="uni1E5C" unicode="&#x1e5c;" horiz-adv-x="635" 
d="M114.5 752.5q-10.5 11.5 -10.5 38.5v46q0 27 10.5 38.5t38.5 11.5h269q28 0 38 -11.5t10 -38.5v-46q0 -27 -10 -38.5t-38 -11.5h-269q-28 0 -38.5 11.5zM54.5 12q-11.5 12 -11.5 38v579q0 26 12 38.5t40 12.5h246q139 0 205 -58t66 -173q0 -143 -110 -197l99 -215
q4 -8 4 -16q0 -9 -6.5 -15t-17.5 -6h-140q-15 0 -23.5 4t-12.5 15l-83 203h-77v-172q0 -26 -12 -38t-41 -12h-97q-29 0 -40.5 12zM319 365q91 0 91 84q0 85 -86 85h-79v-169h74zM253.5 -187.5q-17.5 18.5 -17.5 45.5v25q0 27 17.5 45.5t43.5 18.5h27q27 0 44 -18.5t17 -45.5
v-25q0 -27 -17 -45.5t-44 -18.5h-27q-26 0 -43.5 18.5z" />
    <glyph glyph-name="uni1E5E" unicode="&#x1e5e;" horiz-adv-x="635" 
d="M54.5 12q-11.5 12 -11.5 38v579q0 26 12 38.5t40 12.5h246q139 0 205 -58t66 -173q0 -143 -110 -197l99 -215q4 -8 4 -16q0 -9 -6.5 -15t-17.5 -6h-140q-15 0 -23.5 4t-12.5 15l-83 203h-77v-172q0 -26 -12 -38t-41 -12h-97q-29 0 -40.5 12zM319 365q91 0 91 84
q0 85 -86 85h-79v-169h74zM150 -175.5q-10 11.5 -10 37.5v31q0 26 10 38t38 12h243q28 0 38.5 -12t10.5 -38v-31q0 -26 -10.5 -37.5t-38.5 -11.5h-243q-28 0 -38 11.5z" />
    <glyph glyph-name="S" unicode="S" horiz-adv-x="605" 
d="M161 2.5q-75 17.5 -121 49.5q-17 11 -17 23q0 8 6 17l49 78q8 12 16 12q5 0 17 -7q37 -21 84 -34t93 -13q47 0 69.5 14t22.5 45q0 30 -24.5 47t-91.5 43q-101 38 -157.5 85.5t-56.5 129.5q0 99 71 151t189 52q82 0 140.5 -14.5t99.5 -44.5q17 -13 17 -24q0 -7 -6 -16
l-49 -78q-9 -12 -16 -12q-5 0 -17 7q-58 38 -138 38q-43 0 -66 -14t-23 -46q0 -22 12 -36t32.5 -24.5t63.5 -26.5l19 -7q74 -29 116.5 -55.5t64.5 -65t22 -96.5q0 -89 -66.5 -142t-195.5 -53q-84 0 -159 17.5z" />
    <glyph glyph-name="Sacute" unicode="&#x15a;" horiz-adv-x="605" 
d="M248 754q0 8 3 15l44 121q7 20 16.5 27t35.5 7h120q18 0 28.5 -6.5t10.5 -18.5q0 -11 -7 -22l-65 -115q-12 -20 -23 -26.5t-40 -6.5h-89q-34 0 -34 25zM161 2.5q-75 17.5 -121 49.5q-17 11 -17 23q0 8 6 17l49 78q8 12 16 12q5 0 17 -7q37 -21 84 -34t93 -13
q47 0 69.5 14t22.5 45q0 30 -24.5 47t-91.5 43q-101 38 -157.5 85.5t-56.5 129.5q0 99 71 151t189 52q82 0 140.5 -14.5t99.5 -44.5q17 -13 17 -24q0 -7 -6 -16l-49 -78q-9 -12 -16 -12q-5 0 -17 7q-58 38 -138 38q-43 0 -66 -14t-23 -46q0 -22 12 -36t32.5 -24.5
t63.5 -26.5l19 -7q74 -29 116.5 -55.5t64.5 -65t22 -96.5q0 -89 -66.5 -142t-195.5 -53q-84 0 -159 17.5z" />
    <glyph glyph-name="Scaron" unicode="&#x160;" horiz-adv-x="605" 
d="M240 754.5q-8 4.5 -22 21.5l-96 125q-12 17 -12 28q0 19 30 19h77q24 0 34.5 -5t20.5 -20l51 -77l50 77q10 15 20.5 20t34.5 5h77q30 0 30 -19q0 -11 -12 -28l-96 -125q-12 -17 -20.5 -21.5t-33.5 -4.5h-101q-24 0 -32 4.5zM161 2.5q-75 17.5 -121 49.5q-17 11 -17 23
q0 8 6 17l49 78q8 12 16 12q5 0 17 -7q37 -21 84 -34t93 -13q47 0 69.5 14t22.5 45q0 30 -24.5 47t-91.5 43q-101 38 -157.5 85.5t-56.5 129.5q0 99 71 151t189 52q82 0 140.5 -14.5t99.5 -44.5q17 -13 17 -24q0 -7 -6 -16l-49 -78q-9 -12 -16 -12q-5 0 -17 7
q-58 38 -138 38q-43 0 -66 -14t-23 -46q0 -22 12 -36t32.5 -24.5t63.5 -26.5l19 -7q74 -29 116.5 -55.5t64.5 -65t22 -96.5q0 -89 -66.5 -142t-195.5 -53q-84 0 -159 17.5z" />
    <glyph glyph-name="Scedilla" unicode="&#x15e;" horiz-adv-x="606" 
d="M523 44q-59 -52 -175 -58l-23 -50q33 -5 49.5 -23t16.5 -51q0 -38 -33.5 -62.5t-98.5 -24.5q-28 0 -56.5 5t-42.5 12q-9 5 -11 8t1 10l21 54q3 7 8 7q4 0 10 -3q17 -10 42 -10q18 0 25.5 5t7.5 16q0 15 -12 20.5t-39 5.5h-17q-8 0 -10.5 4.5t0.5 11.5l27 67l2 4
q-114 18 -175 60q-18 12 -18 23q0 7 7 17l49 78q8 12 16 12q5 0 17 -7q36 -22 83.5 -34.5t93.5 -12.5q47 0 69.5 14t22.5 45q0 30 -24.5 47t-91.5 43q-101 38 -157.5 85.5t-56.5 129.5q0 99 71 151t189 52q81 0 139 -14.5t101 -44.5q17 -13 17 -24q0 -7 -6 -16l-49 -78
q-9 -12 -16 -12q-5 0 -17 7q-55 38 -138 38q-43 0 -66 -14t-23 -46q0 -22 12 -36t32.5 -24.5t63.5 -26.5l19 -7q74 -29 116.5 -55.5t64.5 -65t22 -96.5q0 -84 -59 -136z" />
    <glyph glyph-name="Scircumflex" unicode="&#x15c;" horiz-adv-x="605" 
d="M107.5 735.5q-8.5 5.5 -8.5 14.5q0 12 12 27l96 125q14 17 22 22t32 5h101q24 0 32.5 -5t21.5 -22l96 -125q12 -15 12 -27q0 -9 -8 -14.5t-23 -5.5h-75q-24 0 -35 5.5t-21 20.5l-50 77l-51 -77q-9 -15 -20 -20.5t-35 -5.5h-75q-15 0 -23.5 5.5zM161 2.5
q-75 17.5 -121 49.5q-17 11 -17 23q0 8 6 17l49 78q8 12 16 12q5 0 17 -7q37 -21 84 -34t93 -13q47 0 69.5 14t22.5 45q0 30 -24.5 47t-91.5 43q-101 38 -157.5 85.5t-56.5 129.5q0 99 71 151t189 52q82 0 140.5 -14.5t99.5 -44.5q17 -13 17 -24q0 -7 -6 -16l-49 -78
q-9 -12 -16 -12q-5 0 -17 7q-58 38 -138 38q-43 0 -66 -14t-23 -46q0 -22 12 -36t32.5 -24.5t63.5 -26.5l19 -7q74 -29 116.5 -55.5t64.5 -65t22 -96.5q0 -89 -66.5 -142t-195.5 -53q-84 0 -159 17.5z" />
    <glyph glyph-name="Scommaaccent" unicode="&#x218;" horiz-adv-x="605" 
d="M161 2.5q-75 17.5 -121 49.5q-17 11 -17 23q0 8 6 17l49 78q8 12 16 12q5 0 17 -7q37 -21 84 -34t93 -13q47 0 69.5 14t22.5 45q0 30 -24.5 47t-91.5 43q-101 38 -157.5 85.5t-56.5 129.5q0 99 71 151t189 52q82 0 140.5 -14.5t99.5 -44.5q17 -13 17 -24q0 -7 -6 -16
l-49 -78q-9 -12 -16 -12q-5 0 -17 7q-58 38 -138 38q-43 0 -66 -14t-23 -46q0 -22 12 -36t32.5 -24.5t63.5 -26.5l19 -7q74 -29 116.5 -55.5t64.5 -65t22 -96.5q0 -89 -66.5 -142t-195.5 -53q-84 0 -159 17.5zM182 -252q0 3 2 13l47 162q6 23 16 30t34 7h80q20 0 28.5 -5
t8.5 -17q0 -11 -7 -28l-68 -159q-6 -12 -14.5 -17.5t-24.5 -5.5h-76q-26 0 -26 20z" />
    <glyph glyph-name="uni1E60" unicode="&#x1e60;" horiz-adv-x="605" 
d="M263 757.5q-17 18.5 -17 45.5v25q0 27 17 45.5t44 18.5h27q27 0 44 -18.5t17 -45.5v-25q0 -27 -17 -45.5t-44 -18.5h-27q-27 0 -44 18.5zM161 2.5q-75 17.5 -121 49.5q-17 11 -17 23q0 8 6 17l49 78q8 12 16 12q5 0 17 -7q37 -21 84 -34t93 -13q47 0 69.5 14t22.5 45
q0 30 -24.5 47t-91.5 43q-101 38 -157.5 85.5t-56.5 129.5q0 99 71 151t189 52q82 0 140.5 -14.5t99.5 -44.5q17 -13 17 -24q0 -7 -6 -16l-49 -78q-9 -12 -16 -12q-5 0 -17 7q-58 38 -138 38q-43 0 -66 -14t-23 -46q0 -22 12 -36t32.5 -24.5t63.5 -26.5l19 -7
q74 -29 116.5 -55.5t64.5 -65t22 -96.5q0 -89 -66.5 -142t-195.5 -53q-84 0 -159 17.5z" />
    <glyph glyph-name="uni1E62" unicode="&#x1e62;" horiz-adv-x="605" 
d="M161 2.5q-75 17.5 -121 49.5q-17 11 -17 23q0 8 6 17l49 78q8 12 16 12q5 0 17 -7q37 -21 84 -34t93 -13q47 0 69.5 14t22.5 45q0 30 -24.5 47t-91.5 43q-101 38 -157.5 85.5t-56.5 129.5q0 99 71 151t189 52q82 0 140.5 -14.5t99.5 -44.5q17 -13 17 -24q0 -7 -6 -16
l-49 -78q-9 -12 -16 -12q-5 0 -17 7q-58 38 -138 38q-43 0 -66 -14t-23 -46q0 -22 12 -36t32.5 -24.5t63.5 -26.5l19 -7q74 -29 116.5 -55.5t64.5 -65t22 -96.5q0 -89 -66.5 -142t-195.5 -53q-84 0 -159 17.5zM264.5 -187.5q-17.5 18.5 -17.5 45.5v25q0 27 17.5 45.5
t43.5 18.5h27q27 0 44 -18.5t17 -45.5v-25q0 -27 -17 -45.5t-44 -18.5h-27q-26 0 -43.5 18.5z" />
    <glyph glyph-name="uni1E9E" unicode="&#x1e9e;" horiz-adv-x="643" 
d="M279 27q-11 7 -11 18q0 7 7 21l40 69q5 9 14 9q4 0 10 -3q19 -13 47 -13q25 0 39 20t14 55q0 38 -16 54t-56 16h-39q-32 0 -32 32v30q0 15 4 23.5t15 19.5l100 84q0 56 -85 56q-42 0 -63.5 -21t-21.5 -57v-390q0 -26 -12.5 -38t-41.5 -12h-96q-29 0 -40.5 12t-11.5 38
v416q0 108 73 168.5t211 60.5q139 0 214.5 -62t75.5 -167l-137 -121h13q68 0 107.5 -39.5t39.5 -113.5q0 -97 -51.5 -152t-151.5 -55q-97 0 -158 42z" />
    <glyph glyph-name="uni018F" unicode="&#x18f;" horiz-adv-x="698" 
d="M23 326q0 50 43 50h418q0 92 -37.5 133.5t-132.5 41.5q-88 0 -158 -34q-16 -7 -20 -7q-9 0 -16 12l-43 74q-7 14 -7 21q0 11 10 18q42 30 107 45t146 15q118 0 194.5 -47.5t112 -128t35.5 -181.5q0 -165 -81 -259t-251 -94q-320 0 -320 341zM447 164q37 36 37 96h-281
q0 -62 35 -97t105 -35q67 0 104 36z" />
    <glyph glyph-name="T" unicode="T" horiz-adv-x="614" 
d="M217 12q-12 12 -12 38v484h-154q-28 0 -38 11.5t-10 37.5v47q0 26 10 38t38 12h511q28 0 38.5 -12t10.5 -38v-47q0 -26 -10.5 -37.5t-38.5 -11.5h-154v-484q0 -26 -12 -38t-41 -12h-97q-29 0 -41 12z" />
    <glyph glyph-name="Tbar" unicode="&#x166;" horiz-adv-x="614" 
d="M600.5 668q10.5 -12 10.5 -38v-47q0 -26 -10.5 -37.5t-38.5 -11.5h-154v-97h32q28 0 38.5 -11.5t10.5 -38.5v-46q0 -27 -10.5 -38.5t-38.5 -11.5h-32v-241q0 -26 -12 -38t-41 -12h-97q-29 0 -41 12t-12 38v241h-34q-28 0 -38 11.5t-10 38.5v46q0 27 10 38.5t38 11.5h34
v97h-154q-28 0 -38 11.5t-10 37.5v47q0 26 10 38t38 12h511q28 0 38.5 -12z" />
    <glyph glyph-name="Tcaron" unicode="&#x164;" horiz-adv-x="614" 
d="M227 742.5q-8 4.5 -22 21.5l-96 125q-12 17 -12 28q0 19 30 19h77q24 0 34.5 -5t20.5 -20l51 -77l50 77q10 15 20.5 20t34.5 5h77q30 0 30 -19q0 -11 -12 -28l-96 -125q-12 -17 -20.5 -21.5t-33.5 -4.5h-101q-24 0 -32 4.5zM217 12q-12 12 -12 38v484h-154
q-28 0 -38 11.5t-10 37.5v47q0 26 10 38t38 12h511q28 0 38.5 -12t10.5 -38v-47q0 -26 -10.5 -37.5t-38.5 -11.5h-154v-484q0 -26 -12 -38t-41 -12h-97q-29 0 -41 12z" />
    <glyph glyph-name="uni0162" unicode="&#x162;" horiz-adv-x="614" 
d="M600.5 668q10.5 -12 10.5 -38v-47q0 -26 -10.5 -37.5t-38.5 -11.5h-154v-484q0 -22 -8.5 -34t-28.5 -15h7q12 0 12 -8q0 -5 -2 -8l-23 -50q34 -6 50 -24t16 -50q0 -38 -33 -63t-98 -25q-27 0 -56 5t-44 13q-9 5 -11 8t1 10l21 53q3 7 8 7q4 0 10 -3q20 -10 43 -10
q33 0 33 21q0 15 -12 20.5t-40 5.5h-17q-8 0 -10.5 4.5t0.5 11.5l27 68q4 10 12 13h-7q-29 0 -41 12t-12 38v484h-154q-28 0 -38 11.5t-10 37.5v47q0 26 10 38t38 12h511q28 0 38.5 -12z" />
    <glyph glyph-name="uni021A" unicode="&#x21a;" horiz-adv-x="614" 
d="M217 12q-12 12 -12 38v484h-154q-28 0 -38 11.5t-10 37.5v47q0 26 10 38t38 12h511q28 0 38.5 -12t10.5 -38v-47q0 -26 -10.5 -37.5t-38.5 -11.5h-154v-484q0 -26 -12 -38t-41 -12h-97q-29 0 -41 12zM179 -244q0 3 2 13l45 158q7 22 17 29.5t33 7.5h80q20 0 29 -5t9 -16
q0 -10 -8 -29l-66 -155q-5 -12 -13.5 -17.5t-25.5 -5.5h-76q-26 0 -26 20z" />
    <glyph glyph-name="uni1E6C" unicode="&#x1e6c;" horiz-adv-x="614" 
d="M217 12q-12 12 -12 38v484h-154q-28 0 -38 11.5t-10 37.5v47q0 26 10 38t38 12h511q28 0 38.5 -12t10.5 -38v-47q0 -26 -10.5 -37.5t-38.5 -11.5h-154v-484q0 -26 -12 -38t-41 -12h-97q-29 0 -41 12zM260.5 -187.5q-17.5 18.5 -17.5 45.5v25q0 27 17.5 45.5t43.5 18.5h27
q27 0 44 -18.5t17 -45.5v-25q0 -27 -17 -45.5t-44 -18.5h-27q-26 0 -43.5 18.5z" />
    <glyph glyph-name="uni1E6E" unicode="&#x1e6e;" horiz-adv-x="614" 
d="M217 12q-12 12 -12 38v484h-154q-28 0 -38 11.5t-10 37.5v47q0 26 10 38t38 12h511q28 0 38.5 -12t10.5 -38v-47q0 -26 -10.5 -37.5t-38.5 -11.5h-154v-484q0 -26 -12 -38t-41 -12h-97q-29 0 -41 12zM146 -175.5q-10 11.5 -10 37.5v31q0 26 10 38t38 12h243
q28 0 38.5 -12t10.5 -38v-31q0 -26 -10.5 -37.5t-38.5 -11.5h-243q-28 0 -38 11.5z" />
    <glyph glyph-name="U" unicode="U" horiz-adv-x="716" 
d="M190.5 16q-72.5 31 -112.5 90t-40 140v383q0 26 12 38.5t40 12.5h97q29 0 41 -12.5t12 -38.5v-386q0 -56 31.5 -85.5t86.5 -29.5t86 29.5t31 85.5v386q0 26 12 38.5t40 12.5h97q29 0 41.5 -12.5t12.5 -38.5v-383q0 -81 -40.5 -140t-112.5 -90t-167 -31t-167.5 31z" />
    <glyph glyph-name="Uacute" unicode="&#xda;" horiz-adv-x="716" 
d="M272 766q0 8 3 15l44 121q7 20 16.5 27t35.5 7h120q18 0 28.5 -6.5t10.5 -18.5q0 -11 -7 -22l-65 -115q-12 -20 -23 -26.5t-40 -6.5h-89q-34 0 -34 25zM190.5 16q-72.5 31 -112.5 90t-40 140v383q0 26 12 38.5t40 12.5h97q29 0 41 -12.5t12 -38.5v-386q0 -56 31.5 -85.5
t86.5 -29.5t86 29.5t31 85.5v386q0 26 12 38.5t40 12.5h97q29 0 41.5 -12.5t12.5 -38.5v-383q0 -81 -40.5 -140t-112.5 -90t-167 -31t-167.5 31z" />
    <glyph glyph-name="Ubreve" unicode="&#x16c;" horiz-adv-x="716" 
d="M220.5 780q-48.5 48 -48.5 125q0 8 4.5 13t11.5 5h108q10 0 13.5 -4.5t3.5 -14.5q0 -49 48 -49t48 49q0 10 3.5 14.5t13.5 4.5h108q7 0 11.5 -5t4.5 -13q0 -77 -49 -125t-140 -48q-92 0 -140.5 48zM190.5 16q-72.5 31 -112.5 90t-40 140v383q0 26 12 38.5t40 12.5h97
q29 0 41 -12.5t12 -38.5v-386q0 -56 31.5 -85.5t86.5 -29.5t86 29.5t31 85.5v386q0 26 12 38.5t40 12.5h97q29 0 41.5 -12.5t12.5 -38.5v-383q0 -81 -40.5 -140t-112.5 -90t-167 -31t-167.5 31z" />
    <glyph glyph-name="uni01D3" unicode="&#x1d3;" horiz-adv-x="716" 
d="M272 742.5q-8 4.5 -22 21.5l-96 125q-12 17 -12 28q0 19 30 19h77q24 0 34.5 -5t20.5 -20l51 -77l50 77q10 15 20.5 20t34.5 5h77q30 0 30 -19q0 -11 -12 -28l-96 -125q-12 -17 -20.5 -21.5t-33.5 -4.5h-101q-24 0 -32 4.5zM190.5 16q-72.5 31 -112.5 90t-40 140v383
q0 26 12 38.5t40 12.5h97q29 0 41 -12.5t12 -38.5v-386q0 -56 31.5 -85.5t86.5 -29.5t86 29.5t31 85.5v386q0 26 12 38.5t40 12.5h97q29 0 41.5 -12.5t12.5 -38.5v-383q0 -81 -40.5 -140t-112.5 -90t-167 -31t-167.5 31z" />
    <glyph glyph-name="Ucircumflex" unicode="&#xdb;" horiz-adv-x="716" 
d="M155.5 747.5q-8.5 5.5 -8.5 14.5q0 12 12 27l96 125q14 17 22 22t32 5h101q24 0 32.5 -5t21.5 -22l96 -125q12 -15 12 -27q0 -9 -8 -14.5t-23 -5.5h-75q-24 0 -35 5.5t-21 20.5l-50 77l-51 -77q-9 -15 -20 -20.5t-35 -5.5h-75q-15 0 -23.5 5.5zM190.5 16
q-72.5 31 -112.5 90t-40 140v383q0 26 12 38.5t40 12.5h97q29 0 41 -12.5t12 -38.5v-386q0 -56 31.5 -85.5t86.5 -29.5t86 29.5t31 85.5v386q0 26 12 38.5t40 12.5h97q29 0 41.5 -12.5t12.5 -38.5v-383q0 -81 -40.5 -140t-112.5 -90t-167 -31t-167.5 31z" />
    <glyph glyph-name="Udieresis" unicode="&#xdc;" horiz-adv-x="716" 
d="M194 749.5q-17 18.5 -17 45.5v25q0 27 17 45.5t44 18.5h27q27 0 44 -18.5t17 -45.5v-25q0 -27 -17 -45.5t-44 -18.5h-27q-27 0 -44 18.5zM408.5 749.5q-17.5 18.5 -17.5 45.5v25q0 27 17.5 45.5t43.5 18.5h27q27 0 44 -18.5t17 -45.5v-25q0 -27 -17 -45.5t-44 -18.5h-27
q-26 0 -43.5 18.5zM190.5 16q-72.5 31 -112.5 90t-40 140v383q0 26 12 38.5t40 12.5h97q29 0 41 -12.5t12 -38.5v-386q0 -56 31.5 -85.5t86.5 -29.5t86 29.5t31 85.5v386q0 26 12 38.5t40 12.5h97q29 0 41.5 -12.5t12.5 -38.5v-383q0 -81 -40.5 -140t-112.5 -90t-167 -31
t-167.5 31z" />
    <glyph glyph-name="uni01D7" unicode="&#x1d7;" horiz-adv-x="716" 
d="M303 928q0 8 3 15l32 87q6 19 13.5 25t28.5 6h67q29 0 29 -19q0 -10 -8 -24l-45 -80q-11 -19 -19 -24t-30 -5h-46q-25 0 -25 19zM193 755.5q-17 18.5 -17 45.5v25q0 27 17 45.5t44 18.5h27q27 0 44 -18.5t17 -45.5v-25q0 -27 -17 -45.5t-44 -18.5h-27q-27 0 -44 18.5z
M410 755.5q-17 18.5 -17 45.5v25q0 27 17 45.5t44 18.5h26q27 0 44 -18.5t17 -45.5v-25q0 -27 -17 -45.5t-44 -18.5h-26q-27 0 -44 18.5zM190.5 16q-72.5 31 -112.5 90t-40 140v383q0 26 12 38.5t40 12.5h97q29 0 41 -12.5t12 -38.5v-386q0 -56 31.5 -85.5t86.5 -29.5
t86 29.5t31 85.5v386q0 26 12 38.5t40 12.5h97q29 0 41.5 -12.5t12.5 -38.5v-383q0 -81 -40.5 -140t-112.5 -90t-167 -31t-167.5 31z" />
    <glyph glyph-name="uni01D9" unicode="&#x1d9;" horiz-adv-x="716" 
d="M285.5 905q-8.5 4 -15 11.5t-8.5 10.5l-100 113q-11 11 -11 22q0 8 6.5 12.5t17.5 4.5h92q15 0 21 -2t12 -11l55 -77l54 77q6 9 11.5 11t21.5 2h92q11 0 17.5 -4.5t6.5 -12.5q0 -11 -11 -22l-99 -113q-2 -3 -9.5 -11.5t-17 -11.5t-25.5 -3h-82q-20 0 -28.5 4zM194 753.5
q-17 18.5 -17 45.5v25q0 27 17 45.5t44 18.5h26q27 0 44 -18.5t17 -45.5v-25q0 -27 -17 -45.5t-44 -18.5h-26q-27 0 -44 18.5zM410 753.5q-17 18.5 -17 45.5v25q0 27 17 45.5t44 18.5h27q27 0 44 -18.5t17 -45.5v-25q0 -27 -17 -45.5t-44 -18.5h-27q-27 0 -44 18.5z
M190.5 16q-72.5 31 -112.5 90t-40 140v383q0 26 12 38.5t40 12.5h97q29 0 41 -12.5t12 -38.5v-386q0 -56 31.5 -85.5t86.5 -29.5t86 29.5t31 85.5v386q0 26 12 38.5t40 12.5h97q29 0 41.5 -12.5t12.5 -38.5v-383q0 -81 -40.5 -140t-112.5 -90t-167 -31t-167.5 31z" />
    <glyph glyph-name="uni01DB" unicode="&#x1db;" horiz-adv-x="716" 
d="M311.5 913q-8.5 5 -19.5 24l-45 80q-8 14 -8 24q0 19 29 19h67q21 0 28.5 -6t14.5 -25l32 -87q3 -7 3 -14q0 -20 -25 -20h-46q-22 0 -30.5 5zM191 754.5q-17 18.5 -17 45.5v25q0 27 17 45.5t44 18.5h27q27 0 44 -18.5t17 -45.5v-25q0 -27 -17 -45.5t-44 -18.5h-27
q-27 0 -44 18.5zM408 754.5q-17 18.5 -17 45.5v25q0 27 17 45.5t44 18.5h26q27 0 44 -18.5t17 -45.5v-25q0 -27 -17 -45.5t-44 -18.5h-26q-27 0 -44 18.5zM190.5 16q-72.5 31 -112.5 90t-40 140v383q0 26 12 38.5t40 12.5h97q29 0 41 -12.5t12 -38.5v-386q0 -56 31.5 -85.5
t86.5 -29.5t86 29.5t31 85.5v386q0 26 12 38.5t40 12.5h97q29 0 41.5 -12.5t12.5 -38.5v-383q0 -81 -40.5 -140t-112.5 -90t-167 -31t-167.5 31z" />
    <glyph glyph-name="uni01D5" unicode="&#x1d5;" horiz-adv-x="716" 
d="M180.5 938.5q-10.5 11.5 -10.5 38.5v46q0 27 10.5 38.5t38.5 11.5h269q28 0 38 -11.5t10 -38.5v-46q0 -27 -10 -38.5t-38 -11.5h-269q-28 0 -38.5 11.5zM192 745.5q-17 18.5 -17 45.5v25q0 27 17 45.5t44 18.5h27q27 0 44 -18.5t17 -45.5v-25q0 -27 -17 -45.5t-44 -18.5
h-27q-27 0 -44 18.5zM406.5 745.5q-17.5 18.5 -17.5 45.5v25q0 27 17.5 45.5t43.5 18.5h27q27 0 44 -18.5t17 -45.5v-25q0 -27 -17 -45.5t-44 -18.5h-27q-26 0 -43.5 18.5zM190.5 16q-72.5 31 -112.5 90t-40 140v383q0 26 12 38.5t40 12.5h97q29 0 41 -12.5t12 -38.5v-386
q0 -56 31.5 -85.5t86.5 -29.5t86 29.5t31 85.5v386q0 26 12 38.5t40 12.5h97q29 0 41.5 -12.5t12.5 -38.5v-383q0 -81 -40.5 -140t-112.5 -90t-167 -31t-167.5 31z" />
    <glyph glyph-name="uni1EE4" unicode="&#x1ee4;" horiz-adv-x="716" 
d="M190.5 16q-72.5 31 -112.5 90t-40 140v383q0 26 12 38.5t40 12.5h97q29 0 41 -12.5t12 -38.5v-386q0 -56 31.5 -85.5t86.5 -29.5t86 29.5t31 85.5v386q0 26 12 38.5t40 12.5h97q29 0 41.5 -12.5t12.5 -38.5v-383q0 -81 -40.5 -140t-112.5 -90t-167 -31t-167.5 31z
M299.5 -187.5q-17.5 18.5 -17.5 45.5v25q0 27 17.5 45.5t43.5 18.5h27q27 0 44 -18.5t17 -45.5v-25q0 -27 -17 -45.5t-44 -18.5h-27q-26 0 -43.5 18.5z" />
    <glyph glyph-name="Ugrave" unicode="&#xd9;" horiz-adv-x="716" 
d="M307 747.5q-11 6.5 -23 26.5l-65 115q-7 11 -7 22q0 12 10.5 18.5t28.5 6.5h120q26 0 35.5 -7t16.5 -27l44 -121q3 -9 3 -16q0 -11 -8.5 -17.5t-25.5 -6.5h-89q-29 0 -40 6.5zM190.5 16q-72.5 31 -112.5 90t-40 140v383q0 26 12 38.5t40 12.5h97q29 0 41 -12.5t12 -38.5
v-386q0 -56 31.5 -85.5t86.5 -29.5t86 29.5t31 85.5v386q0 26 12 38.5t40 12.5h97q29 0 41.5 -12.5t12.5 -38.5v-383q0 -81 -40.5 -140t-112.5 -90t-167 -31t-167.5 31z" />
    <glyph glyph-name="uni1EE6" unicode="&#x1ee6;" horiz-adv-x="716" 
d="M291 749v52q0 17 7.5 24t28.5 7q26 0 37.5 5.5t11.5 20.5q0 22 -36 22q-29 0 -67 -18q-8 -3 -12 3l-27 63q-2 4 -2 6q0 5 6 8q21 14 56.5 22.5t68.5 8.5q71 0 106.5 -27.5t35.5 -79.5q0 -46 -26.5 -73.5t-65.5 -27.5v-16q0 -23 -23 -23h-76q-23 0 -23 23zM190.5 16
q-72.5 31 -112.5 90t-40 140v383q0 26 12 38.5t40 12.5h97q29 0 41 -12.5t12 -38.5v-386q0 -56 31.5 -85.5t86.5 -29.5t86 29.5t31 85.5v386q0 26 12 38.5t40 12.5h97q29 0 41.5 -12.5t12.5 -38.5v-383q0 -81 -40.5 -140t-112.5 -90t-167 -31t-167.5 31z" />
    <glyph glyph-name="Uhorn" unicode="&#x1af;" horiz-adv-x="883" 
d="M190.5 16q-72.5 31 -112.5 90t-40 140v383q0 26 12 38.5t40 12.5h97q29 0 41 -12.5t12 -38.5v-386q0 -57 32 -86t86 -29t85.5 28.5t31.5 86.5v386q0 26 12 38.5t40 12.5h112q39 0 39 -45v-7q24 4 34 12t13.5 25t3.5 54q0 17 4.5 23.5t17.5 6.5h111q17 0 22.5 -6t5.5 -26
q0 -101 -49.5 -158t-162.5 -67v-246q0 -81 -40.5 -140t-112.5 -90t-167 -31t-167.5 31z" />
    <glyph glyph-name="uni1EE8" unicode="&#x1ee8;" horiz-adv-x="883" 
d="M261 742q0 8 3 15l44 121q7 20 16.5 27t35.5 7h120q18 0 28.5 -6.5t10.5 -18.5q0 -11 -7 -22l-65 -115q-12 -20 -23 -26.5t-40 -6.5h-89q-34 0 -34 25zM190.5 16q-72.5 31 -112.5 90t-40 140v383q0 26 12 38.5t40 12.5h97q29 0 41 -12.5t12 -38.5v-386q0 -57 32 -86
t86 -29t85.5 28.5t31.5 86.5v386q0 26 12 38.5t40 12.5h112q39 0 39 -45v-7q24 4 34 12t13.5 25t3.5 54q0 17 4.5 23.5t17.5 6.5h111q17 0 22.5 -6t5.5 -26q0 -101 -49.5 -158t-162.5 -67v-246q0 -81 -40.5 -140t-112.5 -90t-167 -31t-167.5 31z" />
    <glyph glyph-name="uni1EF0" unicode="&#x1ef0;" horiz-adv-x="883" 
d="M190.5 16q-72.5 31 -112.5 90t-40 140v383q0 26 12 38.5t40 12.5h97q29 0 41 -12.5t12 -38.5v-386q0 -57 32 -86t86 -29t85.5 28.5t31.5 86.5v386q0 26 12 38.5t40 12.5h112q39 0 39 -45v-7q24 4 34 12t13.5 25t3.5 54q0 17 4.5 23.5t17.5 6.5h111q17 0 22.5 -6t5.5 -26
q0 -101 -49.5 -158t-162.5 -67v-246q0 -81 -40.5 -140t-112.5 -90t-167 -31t-167.5 31zM305.5 -187.5q-17.5 18.5 -17.5 45.5v25q0 27 17.5 45.5t43.5 18.5h27q27 0 44 -18.5t17 -45.5v-25q0 -27 -17 -45.5t-44 -18.5h-27q-26 0 -43.5 18.5z" />
    <glyph glyph-name="uni1EEA" unicode="&#x1eea;" horiz-adv-x="883" 
d="M289 723.5q-11 6.5 -23 26.5l-65 115q-7 11 -7 22q0 12 10.5 18.5t28.5 6.5h120q26 0 35.5 -7t16.5 -27l44 -121q3 -9 3 -16q0 -11 -8.5 -17.5t-25.5 -6.5h-89q-29 0 -40 6.5zM190.5 16q-72.5 31 -112.5 90t-40 140v383q0 26 12 38.5t40 12.5h97q29 0 41 -12.5t12 -38.5
v-386q0 -57 32 -86t86 -29t85.5 28.5t31.5 86.5v386q0 26 12 38.5t40 12.5h112q39 0 39 -45v-7q24 4 34 12t13.5 25t3.5 54q0 17 4.5 23.5t17.5 6.5h111q17 0 22.5 -6t5.5 -26q0 -101 -49.5 -158t-162.5 -67v-246q0 -81 -40.5 -140t-112.5 -90t-167 -31t-167.5 31z" />
    <glyph glyph-name="uni1EEC" unicode="&#x1eec;" horiz-adv-x="883" 
d="M287 749v52q0 17 7.5 24t28.5 7q26 0 37.5 5.5t11.5 20.5q0 22 -36 22q-29 0 -67 -18q-8 -3 -12 3l-27 63q-2 4 -2 6q0 5 6 8q21 14 56.5 22.5t68.5 8.5q71 0 106.5 -27.5t35.5 -79.5q0 -46 -26.5 -73.5t-65.5 -27.5v-16q0 -23 -23 -23h-76q-23 0 -23 23zM190.5 16
q-72.5 31 -112.5 90t-40 140v383q0 26 12 38.5t40 12.5h97q29 0 41 -12.5t12 -38.5v-386q0 -57 32 -86t86 -29t85.5 28.5t31.5 86.5v386q0 26 12 38.5t40 12.5h112q39 0 39 -45v-7q24 4 34 12t13.5 25t3.5 54q0 17 4.5 23.5t17.5 6.5h111q17 0 22.5 -6t5.5 -26
q0 -101 -49.5 -158t-162.5 -67v-246q0 -81 -40.5 -140t-112.5 -90t-167 -31t-167.5 31z" />
    <glyph glyph-name="uni1EEE" unicode="&#x1eee;" horiz-adv-x="883" 
d="M431 723.5q-19 6.5 -47 20.5q-23 11 -39 17t-32 6q-18 0 -29.5 -7t-27.5 -25q-10 -12 -23 -12q-17 0 -52 27q-17 12 -24.5 22t-7.5 20q0 14 13 31q31 43 59 62.5t68 19.5q29 0 52.5 -8t50.5 -22q23 -11 35 -15.5t26 -4.5q17 0 28 7t28 27q11 13 23 13q17 0 52 -26
q17 -13 24.5 -23t7.5 -20q0 -15 -13 -32q-31 -45 -59.5 -64.5t-71.5 -19.5q-22 0 -41 6.5zM190.5 16q-72.5 31 -112.5 90t-40 140v383q0 26 12 38.5t40 12.5h97q29 0 41 -12.5t12 -38.5v-386q0 -57 32 -86t86 -29t85.5 28.5t31.5 86.5v386q0 26 12 38.5t40 12.5h112
q39 0 39 -45v-7q24 4 34 12t13.5 25t3.5 54q0 17 4.5 23.5t17.5 6.5h111q17 0 22.5 -6t5.5 -26q0 -101 -49.5 -158t-162.5 -67v-246q0 -81 -40.5 -140t-112.5 -90t-167 -31t-167.5 31z" />
    <glyph glyph-name="Uhungarumlaut" unicode="&#x170;" horiz-adv-x="716" 
d="M184 743.5q-9 6.5 -9 17.5q0 8 4 16l59 121q11 21 19.5 27.5t33.5 6.5h104q18 0 29 -6.5t11 -18.5q0 -10 -9 -22l-80 -115q-11 -15 -17 -21t-16.5 -9t-30.5 -3h-72q-17 0 -26 6.5zM425 743.5q-9 6.5 -9 18.5q0 5 4 15l60 121q8 16 12 21.5t13.5 9t27.5 3.5h103
q18 0 29 -6.5t11 -18.5q0 -11 -8 -22l-81 -115q-15 -21 -25 -27t-38 -6h-72q-18 0 -27 6.5zM190.5 16q-72.5 31 -112.5 90t-40 140v383q0 26 12 38.5t40 12.5h97q29 0 41 -12.5t12 -38.5v-386q0 -56 31.5 -85.5t86.5 -29.5t86 29.5t31 85.5v386q0 26 12 38.5t40 12.5h97
q29 0 41.5 -12.5t12.5 -38.5v-383q0 -81 -40.5 -140t-112.5 -90t-167 -31t-167.5 31z" />
    <glyph glyph-name="Umacron" unicode="&#x16a;" horiz-adv-x="716" 
d="M187.5 752.5q-10.5 11.5 -10.5 38.5v46q0 27 10.5 38.5t38.5 11.5h269q28 0 38 -11.5t10 -38.5v-46q0 -27 -10 -38.5t-38 -11.5h-269q-28 0 -38.5 11.5zM190.5 16q-72.5 31 -112.5 90t-40 140v383q0 26 12 38.5t40 12.5h97q29 0 41 -12.5t12 -38.5v-386q0 -56 31.5 -85.5
t86.5 -29.5t86 29.5t31 85.5v386q0 26 12 38.5t40 12.5h97q29 0 41.5 -12.5t12.5 -38.5v-383q0 -81 -40.5 -140t-112.5 -90t-167 -31t-167.5 31z" />
    <glyph glyph-name="Uogonek" unicode="&#x172;" horiz-adv-x="716" 
d="M665.5 667.5q12.5 -12.5 12.5 -38.5v-383q0 -104 -66 -170.5t-178 -84.5l-2 -4q-38 -47 -49.5 -65t-11.5 -38q0 -27 24 -27q14 0 22 4q6 2 7 2q4 0 7 -7l21 -45q2 -4 2 -6q0 -6 -12 -11q-35 -16 -102 -16q-50 0 -75.5 25t-25.5 64q0 27 14 56t46 65q-120 14 -190.5 82
t-70.5 176v383q0 26 12 38.5t40 12.5h97q29 0 41 -12.5t12 -38.5v-386q0 -56 31.5 -85.5t86.5 -29.5t86 29.5t31 85.5v386q0 26 12 38.5t40 12.5h97q29 0 41.5 -12.5z" />
    <glyph glyph-name="Uring" unicode="&#x16e;" horiz-adv-x="716" 
d="M279 756q-36 36 -36 88t36 88t88 36t88 -36t36 -88t-36 -88t-88 -36t-88 36zM394 816.5q11 11.5 11 27.5t-11 27t-27 11t-27.5 -11t-11.5 -27t11.5 -27.5t27.5 -11.5t27 11.5zM190.5 16q-72.5 31 -112.5 90t-40 140v383q0 26 12 38.5t40 12.5h97q29 0 41 -12.5t12 -38.5
v-386q0 -56 31.5 -85.5t86.5 -29.5t86 29.5t31 85.5v386q0 26 12 38.5t40 12.5h97q29 0 41.5 -12.5t12.5 -38.5v-383q0 -81 -40.5 -140t-112.5 -90t-167 -31t-167.5 31z" />
    <glyph glyph-name="Utilde" unicode="&#x168;" horiz-adv-x="716" 
d="M426 735.5q-19 6.5 -47 20.5q-23 11 -39 17t-32 6q-18 0 -29.5 -7t-27.5 -25q-10 -12 -23 -12q-17 0 -52 27q-17 12 -24.5 22t-7.5 20q0 14 13 31q31 43 59 62.5t68 19.5q29 0 52.5 -8t50.5 -22q23 -11 35 -15.5t26 -4.5q17 0 28 7t28 27q11 13 23 13q17 0 52 -26
q17 -13 24.5 -23t7.5 -20q0 -15 -13 -32q-31 -45 -59.5 -64.5t-71.5 -19.5q-22 0 -41 6.5zM190.5 16q-72.5 31 -112.5 90t-40 140v383q0 26 12 38.5t40 12.5h97q29 0 41 -12.5t12 -38.5v-386q0 -56 31.5 -85.5t86.5 -29.5t86 29.5t31 85.5v386q0 26 12 38.5t40 12.5h97
q29 0 41.5 -12.5t12.5 -38.5v-383q0 -81 -40.5 -140t-112.5 -90t-167 -31t-167.5 31z" />
    <glyph glyph-name="V" unicode="V" horiz-adv-x="729" 
d="M290.5 7q-9.5 7 -17.5 26l-246 609q-4 9 -4 19q0 19 20 19h154q28 0 36 -25l131 -378l131 378q8 25 37 25h154q20 0 20 -19q0 -10 -4 -19l-245 -609q-8 -19 -18 -26t-29 -7h-91q-19 0 -28.5 7z" />
    <glyph glyph-name="W" unicode="W" horiz-adv-x="877" 
d="M192.5 7.5q-11.5 7.5 -15.5 25.5l-152 617q-1 4 -1 11q0 19 25 19h141q18 0 25.5 -6t9.5 -19l60 -306l80 251q5 16 13 22t26 6h67q18 0 26.5 -6t13.5 -22l80 -251l59 306q2 13 10 19t26 6h141q26 0 26 -19q0 -7 -1 -11l-154 -617q-4 -18 -15 -25.5t-31 -7.5h-91
q-20 0 -30.5 7.5t-15.5 25.5l-77 263l-77 -263q-5 -18 -16 -25.5t-30 -7.5h-91q-20 0 -31.5 7.5z" />
    <glyph glyph-name="Wacute" unicode="&#x1e82;" horiz-adv-x="877" 
d="M347 746q0 8 3 15l44 121q7 20 16.5 27t35.5 7h120q18 0 28.5 -6.5t10.5 -18.5q0 -11 -7 -22l-65 -115q-12 -20 -23 -26.5t-40 -6.5h-89q-34 0 -34 25zM192.5 7.5q-11.5 7.5 -15.5 25.5l-152 617q-1 4 -1 11q0 19 25 19h141q18 0 25.5 -6t9.5 -19l60 -306l80 251
q5 16 13 22t26 6h67q18 0 26.5 -6t13.5 -22l80 -251l59 306q2 13 10 19t26 6h141q26 0 26 -19q0 -7 -1 -11l-154 -617q-4 -18 -15 -25.5t-31 -7.5h-91q-20 0 -30.5 7.5t-15.5 25.5l-77 263l-77 -263q-5 -18 -16 -25.5t-30 -7.5h-91q-20 0 -31.5 7.5z" />
    <glyph glyph-name="Wcircumflex" unicode="&#x174;" horiz-adv-x="877" 
d="M233.5 735.5q-8.5 5.5 -8.5 14.5q0 12 12 27l96 125q14 17 22 22t32 5h101q24 0 32.5 -5t21.5 -22l96 -125q12 -15 12 -27q0 -9 -8 -14.5t-23 -5.5h-75q-24 0 -35 5.5t-21 20.5l-50 77l-51 -77q-9 -15 -20 -20.5t-35 -5.5h-75q-15 0 -23.5 5.5zM192.5 7.5
q-11.5 7.5 -15.5 25.5l-152 617q-1 4 -1 11q0 19 25 19h141q18 0 25.5 -6t9.5 -19l60 -306l80 251q5 16 13 22t26 6h67q18 0 26.5 -6t13.5 -22l80 -251l59 306q2 13 10 19t26 6h141q26 0 26 -19q0 -7 -1 -11l-154 -617q-4 -18 -15 -25.5t-31 -7.5h-91q-20 0 -30.5 7.5
t-15.5 25.5l-77 263l-77 -263q-5 -18 -16 -25.5t-30 -7.5h-91q-20 0 -31.5 7.5z" />
    <glyph glyph-name="Wdieresis" unicode="&#x1e84;" horiz-adv-x="877" 
d="M272 719.5q-17 18.5 -17 45.5v25q0 27 17 45.5t44 18.5h27q27 0 44 -18.5t17 -45.5v-25q0 -27 -17 -45.5t-44 -18.5h-27q-27 0 -44 18.5zM486.5 719.5q-17.5 18.5 -17.5 45.5v25q0 27 17.5 45.5t43.5 18.5h27q27 0 44 -18.5t17 -45.5v-25q0 -27 -17 -45.5t-44 -18.5h-27
q-26 0 -43.5 18.5zM192.5 7.5q-11.5 7.5 -15.5 25.5l-152 617q-1 4 -1 11q0 19 25 19h141q18 0 25.5 -6t9.5 -19l60 -306l80 251q5 16 13 22t26 6h67q18 0 26.5 -6t13.5 -22l80 -251l59 306q2 13 10 19t26 6h141q26 0 26 -19q0 -7 -1 -11l-154 -617q-4 -18 -15 -25.5
t-31 -7.5h-91q-20 0 -30.5 7.5t-15.5 25.5l-77 263l-77 -263q-5 -18 -16 -25.5t-30 -7.5h-91q-20 0 -31.5 7.5z" />
    <glyph glyph-name="Wgrave" unicode="&#x1e80;" horiz-adv-x="877" 
d="M356 727.5q-11 6.5 -23 26.5l-65 115q-7 11 -7 22q0 12 10.5 18.5t28.5 6.5h120q26 0 35.5 -7t16.5 -27l44 -121q3 -9 3 -16q0 -11 -8.5 -17.5t-25.5 -6.5h-89q-29 0 -40 6.5zM192.5 7.5q-11.5 7.5 -15.5 25.5l-152 617q-1 4 -1 11q0 19 25 19h141q18 0 25.5 -6t9.5 -19
l60 -306l80 251q5 16 13 22t26 6h67q18 0 26.5 -6t13.5 -22l80 -251l59 306q2 13 10 19t26 6h141q26 0 26 -19q0 -7 -1 -11l-154 -617q-4 -18 -15 -25.5t-31 -7.5h-91q-20 0 -30.5 7.5t-15.5 25.5l-77 263l-77 -263q-5 -18 -16 -25.5t-30 -7.5h-91q-20 0 -31.5 7.5z" />
    <glyph glyph-name="X" unicode="X" horiz-adv-x="749" 
d="M29 5.5q-6 5.5 -6 14.5q0 10 7 18l233 312l-217 292q-7 8 -7 18q0 9 6 14.5t16 5.5h155q14 0 21.5 -3t12.5 -11l124 -167l124 167q6 8 13 11t21 3h156q10 0 15.5 -5.5t5.5 -13.5q0 -11 -7 -19l-217 -292l233 -312q7 -8 7 -19q0 -8 -6 -13.5t-16 -5.5h-155q-14 0 -21 3
t-12 10l-141 188l-140 -188q-6 -8 -13 -10.5t-20 -2.5h-156q-10 0 -16 5.5z" />
    <glyph glyph-name="Y" unicode="Y" horiz-adv-x="736" 
d="M278 12q-12 12 -12 38v185l-237 407q-6 9 -6 18t5.5 14.5t16.5 5.5h154q14 0 21 -5.5t14 -18.5l134 -236l133 236q7 13 14 18.5t21 5.5h155q21 0 21 -20q0 -8 -5 -18l-238 -408v-184q0 -26 -12 -38t-41 -12h-97q-29 0 -41 12z" />
    <glyph glyph-name="Yacute" unicode="&#xdd;" horiz-adv-x="736" 
d="M294 766q0 8 3 15l44 121q7 20 16.5 27t35.5 7h120q18 0 28.5 -6.5t10.5 -18.5q0 -11 -7 -22l-65 -115q-12 -20 -23 -26.5t-40 -6.5h-89q-34 0 -34 25zM278 12q-12 12 -12 38v185l-237 407q-6 9 -6 18t5.5 14.5t16.5 5.5h154q14 0 21 -5.5t14 -18.5l134 -236l133 236
q7 13 14 18.5t21 5.5h155q21 0 21 -20q0 -8 -5 -18l-238 -408v-184q0 -26 -12 -38t-41 -12h-97q-29 0 -41 12z" />
    <glyph glyph-name="Ycircumflex" unicode="&#x176;" horiz-adv-x="736" 
d="M163.5 735.5q-8.5 5.5 -8.5 14.5q0 12 12 27l96 125q14 17 22 22t32 5h101q24 0 32.5 -5t21.5 -22l96 -125q12 -15 12 -27q0 -9 -8 -14.5t-23 -5.5h-75q-24 0 -35 5.5t-21 20.5l-50 77l-51 -77q-9 -15 -20 -20.5t-35 -5.5h-75q-15 0 -23.5 5.5zM278 12q-12 12 -12 38v185
l-237 407q-6 9 -6 18t5.5 14.5t16.5 5.5h154q14 0 21 -5.5t14 -18.5l134 -236l133 236q7 13 14 18.5t21 5.5h155q21 0 21 -20q0 -8 -5 -18l-238 -408v-184q0 -26 -12 -38t-41 -12h-97q-29 0 -41 12z" />
    <glyph glyph-name="Ydieresis" unicode="&#x178;" horiz-adv-x="736" 
d="M217 739.5q-17 18.5 -17 45.5v25q0 27 17 45.5t44 18.5h27q27 0 44 -18.5t17 -45.5v-25q0 -27 -17 -45.5t-44 -18.5h-27q-27 0 -44 18.5zM431.5 739.5q-17.5 18.5 -17.5 45.5v25q0 27 17.5 45.5t43.5 18.5h27q27 0 44 -18.5t17 -45.5v-25q0 -27 -17 -45.5t-44 -18.5h-27
q-26 0 -43.5 18.5zM278 12q-12 12 -12 38v185l-237 407q-6 9 -6 18t5.5 14.5t16.5 5.5h154q14 0 21 -5.5t14 -18.5l134 -236l133 236q7 13 14 18.5t21 5.5h155q21 0 21 -20q0 -8 -5 -18l-238 -408v-184q0 -26 -12 -38t-41 -12h-97q-29 0 -41 12z" />
    <glyph glyph-name="uni1E8E" unicode="&#x1e8e;" horiz-adv-x="736" 
d="M310 749.5q-17 18.5 -17 45.5v25q0 27 17 45.5t44 18.5h27q27 0 44 -18.5t17 -45.5v-25q0 -27 -17 -45.5t-44 -18.5h-27q-27 0 -44 18.5zM278 12q-12 12 -12 38v185l-237 407q-6 9 -6 18t5.5 14.5t16.5 5.5h154q14 0 21 -5.5t14 -18.5l134 -236l133 236q7 13 14 18.5
t21 5.5h155q21 0 21 -20q0 -8 -5 -18l-238 -408v-184q0 -26 -12 -38t-41 -12h-97q-29 0 -41 12z" />
    <glyph glyph-name="uni1EF4" unicode="&#x1ef4;" horiz-adv-x="736" 
d="M278 12q-12 12 -12 38v185l-237 407q-6 9 -6 18t5.5 14.5t16.5 5.5h154q14 0 21 -5.5t14 -18.5l134 -236l133 236q7 13 14 18.5t21 5.5h155q21 0 21 -20q0 -8 -5 -18l-238 -408v-184q0 -26 -12 -38t-41 -12h-97q-29 0 -41 12zM309.5 -187.5q-17.5 18.5 -17.5 45.5v25
q0 27 17.5 45.5t43.5 18.5h27q27 0 44 -18.5t17 -45.5v-25q0 -27 -17 -45.5t-44 -18.5h-27q-26 0 -43.5 18.5z" />
    <glyph glyph-name="Ygrave" unicode="&#x1ef2;" horiz-adv-x="736" 
d="M289 735.5q-11 6.5 -23 26.5l-65 115q-7 11 -7 22q0 12 10.5 18.5t28.5 6.5h120q26 0 35.5 -7t16.5 -27l44 -121q3 -9 3 -16q0 -11 -8.5 -17.5t-25.5 -6.5h-89q-29 0 -40 6.5zM278 12q-12 12 -12 38v185l-237 407q-6 9 -6 18t5.5 14.5t16.5 5.5h154q14 0 21 -5.5
t14 -18.5l134 -236l133 236q7 13 14 18.5t21 5.5h155q21 0 21 -20q0 -8 -5 -18l-238 -408v-184q0 -26 -12 -38t-41 -12h-97q-29 0 -41 12z" />
    <glyph glyph-name="uni1EF6" unicode="&#x1ef6;" horiz-adv-x="736" 
d="M301 733v52q0 17 7.5 24t28.5 7q26 0 37.5 5.5t11.5 20.5q0 22 -36 22q-29 0 -67 -18q-8 -3 -12 3l-27 63q-2 4 -2 6q0 5 6 8q21 14 56.5 22.5t68.5 8.5q71 0 106.5 -27.5t35.5 -79.5q0 -46 -26.5 -73.5t-65.5 -27.5v-16q0 -23 -23 -23h-76q-23 0 -23 23zM278 12
q-12 12 -12 38v185l-237 407q-6 9 -6 18t5.5 14.5t16.5 5.5h154q14 0 21 -5.5t14 -18.5l134 -236l133 236q7 13 14 18.5t21 5.5h155q21 0 21 -20q0 -8 -5 -18l-238 -408v-184q0 -26 -12 -38t-41 -12h-97q-29 0 -41 12z" />
    <glyph glyph-name="uni1EF8" unicode="&#x1ef8;" horiz-adv-x="736" 
d="M420 735.5q-19 6.5 -47 20.5q-23 11 -39 17t-32 6q-18 0 -29.5 -7t-27.5 -25q-10 -12 -23 -12q-18 0 -52 27q-17 12 -24.5 22t-7.5 20q0 14 13 31q31 43 59 62.5t68 19.5q29 0 52.5 -8t50.5 -22q23 -11 35 -15.5t26 -4.5q17 0 28 7t28 27q11 13 23 13q17 0 52 -26
q17 -13 24.5 -23t7.5 -20q0 -15 -13 -32q-31 -45 -59.5 -64.5t-71.5 -19.5q-22 0 -41 6.5zM278 12q-12 12 -12 38v185l-237 407q-6 9 -6 18t5.5 14.5t16.5 5.5h154q14 0 21 -5.5t14 -18.5l134 -236l133 236q7 13 14 18.5t21 5.5h155q21 0 21 -20q0 -8 -5 -18l-238 -408v-184
q0 -26 -12 -38t-41 -12h-97q-29 0 -41 12z" />
    <glyph glyph-name="Z" unicode="Z" horiz-adv-x="638" 
d="M32 10q-9 10 -9 37t5 43t24 42l296 402h-265q-29 0 -41 12t-12 38v46q0 26 12 38t41 12h486q26 0 35 -10.5t9 -37.5t-5 -42.5t-25 -42.5l-294 -402h274q29 0 40.5 -12t11.5 -38v-46q0 -25 -11.5 -37t-40.5 -12h-496q-26 0 -35 10z" />
    <glyph glyph-name="Zacute" unicode="&#x179;" horiz-adv-x="638" 
d="M280 754q0 8 3 15l44 121q7 20 16.5 27t35.5 7h120q18 0 28.5 -6.5t10.5 -18.5q0 -11 -7 -22l-65 -115q-12 -20 -23 -26.5t-40 -6.5h-89q-34 0 -34 25zM32 10q-9 10 -9 37t5 43t24 42l296 402h-265q-29 0 -41 12t-12 38v46q0 26 12 38t41 12h486q26 0 35 -10.5t9 -37.5
t-5 -42.5t-25 -42.5l-294 -402h274q29 0 40.5 -12t11.5 -38v-46q0 -25 -11.5 -37t-40.5 -12h-496q-26 0 -35 10z" />
    <glyph glyph-name="Zcaron" unicode="&#x17d;" horiz-adv-x="638" 
d="M243 754.5q-8 4.5 -22 21.5l-96 125q-12 17 -12 28q0 19 30 19h77q24 0 34.5 -5t20.5 -20l51 -77l50 77q10 15 20.5 20t34.5 5h77q30 0 30 -19q0 -11 -12 -28l-96 -125q-12 -17 -20.5 -21.5t-33.5 -4.5h-101q-24 0 -32 4.5zM32 10q-9 10 -9 37t5 43t24 42l296 402h-265
q-29 0 -41 12t-12 38v46q0 26 12 38t41 12h486q26 0 35 -10.5t9 -37.5t-5 -42.5t-25 -42.5l-294 -402h274q29 0 40.5 -12t11.5 -38v-46q0 -25 -11.5 -37t-40.5 -12h-496q-26 0 -35 10z" />
    <glyph glyph-name="Zdotaccent" unicode="&#x17b;" horiz-adv-x="638" 
d="M285 757.5q-17 18.5 -17 45.5v25q0 27 17 45.5t44 18.5h27q27 0 44 -18.5t17 -45.5v-25q0 -27 -17 -45.5t-44 -18.5h-27q-27 0 -44 18.5zM32 10q-9 10 -9 37t5 43t24 42l296 402h-265q-29 0 -41 12t-12 38v46q0 26 12 38t41 12h486q26 0 35 -10.5t9 -37.5t-5 -42.5
t-25 -42.5l-294 -402h274q29 0 40.5 -12t11.5 -38v-46q0 -25 -11.5 -37t-40.5 -12h-496q-26 0 -35 10z" />
    <glyph glyph-name="uni1E92" unicode="&#x1e92;" horiz-adv-x="638" 
d="M32 10q-9 10 -9 37t5 43t24 42l296 402h-265q-29 0 -41 12t-12 38v46q0 26 12 38t41 12h486q26 0 35 -10.5t9 -37.5t-5 -42.5t-25 -42.5l-294 -402h274q29 0 40.5 -12t11.5 -38v-46q0 -25 -11.5 -37t-40.5 -12h-496q-26 0 -35 10zM280.5 -187.5q-17.5 18.5 -17.5 45.5v25
q0 27 17.5 45.5t43.5 18.5h27q27 0 44 -18.5t17 -45.5v-25q0 -27 -17 -45.5t-44 -18.5h-27q-26 0 -43.5 18.5z" />
    <glyph glyph-name="a" unicode="a" horiz-adv-x="618" 
d="M79.5 45.5q-56.5 60.5 -56.5 170.5q0 84 38.5 147t109 97.5t162.5 34.5q76 0 134.5 -16.5t107.5 -47.5v-400q0 -19 -7 -25t-28 -6h-102q-11 0 -17 3.5t-10 11.5l-13 30q-29 -31 -69.5 -45.5t-98.5 -14.5q-94 0 -150.5 60.5zM366 140q22 19 22 54v156q-19 9 -48 9
q-53 0 -84.5 -37t-31.5 -104q0 -97 81 -97q39 0 61 19z" />
    <glyph glyph-name="aacute" unicode="&#xe1;" horiz-adv-x="618" 
d="M237 560q0 8 3 15l44 121q7 20 16.5 27t35.5 7h120q18 0 28.5 -6.5t10.5 -18.5q0 -11 -7 -22l-65 -115q-12 -20 -23 -26.5t-40 -6.5h-89q-34 0 -34 25zM79.5 45.5q-56.5 60.5 -56.5 170.5q0 84 38.5 147t109 97.5t162.5 34.5q76 0 134.5 -16.5t107.5 -47.5v-400
q0 -19 -7 -25t-28 -6h-102q-11 0 -17 3.5t-10 11.5l-13 30q-29 -31 -69.5 -45.5t-98.5 -14.5q-94 0 -150.5 60.5zM366 140q22 19 22 54v156q-19 9 -48 9q-53 0 -84.5 -37t-31.5 -104q0 -97 81 -97q39 0 61 19z" />
    <glyph glyph-name="abreve" unicode="&#x103;" horiz-adv-x="618" 
d="M198.5 594q-48.5 48 -48.5 125q0 8 4.5 13t11.5 5h108q10 0 13.5 -4.5t3.5 -14.5q0 -49 48 -49t48 49q0 10 3.5 14.5t13.5 4.5h108q7 0 11.5 -5t4.5 -13q0 -77 -49 -125t-140 -48q-92 0 -140.5 48zM79.5 45.5q-56.5 60.5 -56.5 170.5q0 84 38.5 147t109 97.5t162.5 34.5
q76 0 134.5 -16.5t107.5 -47.5v-400q0 -19 -7 -25t-28 -6h-102q-11 0 -17 3.5t-10 11.5l-13 30q-29 -31 -69.5 -45.5t-98.5 -14.5q-94 0 -150.5 60.5zM366 140q22 19 22 54v156q-19 9 -48 9q-53 0 -84.5 -37t-31.5 -104q0 -97 81 -97q39 0 61 19z" />
    <glyph glyph-name="uni1EAF" unicode="&#x1eaf;" horiz-adv-x="618" 
d="M289 738q0 6 3 13l33 93q6 17 13 21.5t28 4.5h70q25 0 25 -17q0 -8 -6 -20l-46 -87q-9 -15 -16 -19.5t-23 -4.5h-59q-22 0 -22 16zM204 589.5q-50 44.5 -50 113.5q0 8 4.5 13t11.5 5h91q10 0 13.5 -4.5t3.5 -14.5q0 -50 65 -50t65 50q0 10 3.5 14.5t13.5 4.5h91
q7 0 11.5 -5t4.5 -13q0 -45 -22.5 -80.5t-65 -56.5t-101.5 -21q-89 0 -139 44.5zM79.5 45.5q-56.5 60.5 -56.5 170.5q0 84 38.5 147t109 97.5t162.5 34.5q76 0 134.5 -16.5t107.5 -47.5v-400q0 -19 -7 -25t-28 -6h-102q-11 0 -17 3.5t-10 11.5l-13 30q-29 -31 -69.5 -45.5
t-98.5 -14.5q-94 0 -150.5 60.5zM366 140q22 19 22 54v156q-19 9 -48 9q-53 0 -84.5 -37t-31.5 -104q0 -97 81 -97q39 0 61 19z" />
    <glyph glyph-name="uni1EB7" unicode="&#x1eb7;" horiz-adv-x="618" 
d="M196.5 586q-48.5 48 -48.5 125q0 8 4.5 13t11.5 5h108q10 0 13.5 -4.5t3.5 -14.5q0 -49 48 -49t48 49q0 10 3.5 14.5t13.5 4.5h108q7 0 11.5 -5t4.5 -13q0 -77 -49 -125t-140 -48q-92 0 -140.5 48zM79.5 45.5q-56.5 60.5 -56.5 170.5q0 84 38.5 147t109 97.5t162.5 34.5
q76 0 134.5 -16.5t107.5 -47.5v-400q0 -19 -7 -25t-28 -6h-102q-11 0 -17 3.5t-10 11.5l-13 30q-29 -31 -69.5 -45.5t-98.5 -14.5q-94 0 -150.5 60.5zM366 140q22 19 22 54v156q-19 9 -48 9q-53 0 -84.5 -37t-31.5 -104q0 -97 81 -97q39 0 61 19zM289.5 -187.5
q-17.5 18.5 -17.5 45.5v25q0 27 17.5 45.5t43.5 18.5h27q27 0 44 -18.5t17 -45.5v-25q0 -27 -17 -45.5t-44 -18.5h-27q-26 0 -43.5 18.5z" />
    <glyph glyph-name="uni1EB1" unicode="&#x1eb1;" horiz-adv-x="618" 
d="M299 727q-7 5 -15 19l-47 87q-6 12 -6 20q0 17 26 17h70q22 0 28 -4.5t12 -21.5l33 -93q3 -7 3 -14q0 -15 -21 -15h-60q-16 0 -23 5zM211 589.5q-50 44.5 -50 113.5q0 8 4.5 13t11.5 5h91q10 0 13.5 -4.5t3.5 -14.5q0 -50 65 -50t65 50q0 10 3.5 14.5t13.5 4.5h91
q7 0 11.5 -5t4.5 -13q0 -69 -50 -113.5t-139 -44.5t-139 44.5zM79.5 45.5q-56.5 60.5 -56.5 170.5q0 84 38.5 147t109 97.5t162.5 34.5q76 0 134.5 -16.5t107.5 -47.5v-400q0 -19 -7 -25t-28 -6h-102q-11 0 -17 3.5t-10 11.5l-13 30q-29 -31 -69.5 -45.5t-98.5 -14.5
q-94 0 -150.5 60.5zM366 140q22 19 22 54v156q-19 9 -48 9q-53 0 -84.5 -37t-31.5 -104q0 -97 81 -97q39 0 61 19z" />
    <glyph glyph-name="uni1EB3" unicode="&#x1eb3;" horiz-adv-x="618" 
d="M289 715v34q0 13 6 18.5t21 5.5q17 0 24.5 4t7.5 14q0 16 -23 16q-27 0 -48 -13q-5 -3 -8 2l-20 44q-4 8 3 11q18 10 44 15.5t53 5.5q101 0 101 -71q0 -32 -19 -50t-47 -18v-18q0 -17 -17 -17h-61q-17 0 -17 17zM201 589.5q-50 44.5 -50 113.5q0 8 4.5 13t11.5 5h91
q10 0 13.5 -4.5t3.5 -14.5q0 -50 65 -50t65 50q0 10 3.5 14.5t13.5 4.5h91q7 0 11.5 -5t4.5 -13q0 -69 -50 -113.5t-139 -44.5t-139 44.5zM79.5 45.5q-56.5 60.5 -56.5 170.5q0 84 38.5 147t109 97.5t162.5 34.5q76 0 134.5 -16.5t107.5 -47.5v-400q0 -19 -7 -25t-28 -6
h-102q-11 0 -17 3.5t-10 11.5l-13 30q-29 -31 -69.5 -45.5t-98.5 -14.5q-94 0 -150.5 60.5zM366 140q22 19 22 54v156q-19 9 -48 9q-53 0 -84.5 -37t-31.5 -104q0 -97 81 -97q39 0 61 19z" />
    <glyph glyph-name="uni1EB5" unicode="&#x1eb5;" horiz-adv-x="618" 
d="M379 745.5q-16 4.5 -44 15.5q-37 15 -54 15q-18 0 -28 -4.5t-23 -17.5q-14 -16 -25 -16q-7 0 -15.5 4.5t-23.5 15.5q-15 12 -21 19.5t-6 14.5q0 10 12 23q24 32 49.5 46.5t60.5 14.5q24 0 42 -5.5t43 -16.5q3 -1 18.5 -7.5t28.5 -6.5q16 0 26.5 5.5t23.5 20.5
q10 13 21 13q12 0 40 -20q16 -13 22.5 -20.5t6.5 -15.5q0 -9 -12 -26q-23 -32 -45.5 -44t-61.5 -12q-19 0 -35 4.5zM205 589.5q-50 44.5 -50 113.5q0 8 4.5 13t11.5 5h91q10 0 13.5 -4.5t3.5 -14.5q0 -50 65 -50t65 50q0 10 3.5 14.5t13.5 4.5h91q7 0 11.5 -5t4.5 -13
q0 -69 -50 -113.5t-139 -44.5t-139 44.5zM79.5 45.5q-56.5 60.5 -56.5 170.5q0 84 38.5 147t109 97.5t162.5 34.5q76 0 134.5 -16.5t107.5 -47.5v-400q0 -19 -7 -25t-28 -6h-102q-11 0 -17 3.5t-10 11.5l-13 30q-29 -31 -69.5 -45.5t-98.5 -14.5q-94 0 -150.5 60.5zM366 140
q22 19 22 54v156q-19 9 -48 9q-53 0 -84.5 -37t-31.5 -104q0 -97 81 -97q39 0 61 19z" />
    <glyph glyph-name="uni01CE" unicode="&#x1ce;" horiz-adv-x="618" 
d="M285 564.5q-8 4.5 -22 21.5l-96 125q-12 17 -12 28q0 19 30 19h77q24 0 34.5 -5t20.5 -20l51 -77l50 77q10 15 20.5 20t34.5 5h77q30 0 30 -19q0 -11 -12 -28l-96 -125q-12 -17 -20.5 -21.5t-33.5 -4.5h-101q-24 0 -32 4.5zM79.5 45.5q-56.5 60.5 -56.5 170.5
q0 84 38.5 147t109 97.5t162.5 34.5q76 0 134.5 -16.5t107.5 -47.5v-400q0 -19 -7 -25t-28 -6h-102q-11 0 -17 3.5t-10 11.5l-13 30q-29 -31 -69.5 -45.5t-98.5 -14.5q-94 0 -150.5 60.5zM366 140q22 19 22 54v156q-19 9 -48 9q-53 0 -84.5 -37t-31.5 -104q0 -97 81 -97
q39 0 61 19z" />
    <glyph glyph-name="acircumflex" unicode="&#xe2;" horiz-adv-x="618" 
d="M126.5 541.5q-8.5 5.5 -8.5 14.5q0 12 12 27l96 125q14 17 22 22t32 5h101q24 0 32.5 -5t21.5 -22l96 -125q12 -15 12 -27q0 -9 -8 -14.5t-23 -5.5h-75q-24 0 -35 5.5t-21 20.5l-50 77l-51 -77q-9 -15 -20 -20.5t-35 -5.5h-75q-15 0 -23.5 5.5zM79.5 45.5
q-56.5 60.5 -56.5 170.5q0 84 38.5 147t109 97.5t162.5 34.5q76 0 134.5 -16.5t107.5 -47.5v-400q0 -19 -7 -25t-28 -6h-102q-11 0 -17 3.5t-10 11.5l-13 30q-29 -31 -69.5 -45.5t-98.5 -14.5q-94 0 -150.5 60.5zM366 140q22 19 22 54v156q-19 9 -48 9q-53 0 -84.5 -37
t-31.5 -104q0 -97 81 -97q39 0 61 19z" />
    <glyph glyph-name="uni1EA5" unicode="&#x1ea5;" horiz-adv-x="636" 
d="M454 720q0 7 2 11l32 87q8 20 15.5 27t29.5 7h74q29 0 29 -21q0 -13 -8 -26l-42 -75q-13 -21 -23 -26.5t-36 -5.5h-44q-29 0 -29 22zM133 562q0 12 12 27l95 119q14 17 22 22t32 5h85q24 0 32.5 -5t21.5 -22l95 -119q12 -15 12 -27q0 -20 -31 -20h-71q-24 0 -35 5t-20 20
l-46 68l-47 -68q-9 -15 -20 -20t-35 -5h-71q-31 0 -31 20zM79.5 45.5q-56.5 60.5 -56.5 170.5q0 84 38.5 147t109 97.5t162.5 34.5q76 0 134.5 -16.5t107.5 -47.5v-400q0 -19 -7 -25t-28 -6h-102q-11 0 -17 3.5t-10 11.5l-13 30q-29 -31 -69.5 -45.5t-98.5 -14.5
q-94 0 -150.5 60.5zM366 140q22 19 22 54v156q-19 9 -48 9q-53 0 -84.5 -37t-31.5 -104q0 -97 81 -97q39 0 61 19z" />
    <glyph glyph-name="uni1EAD" unicode="&#x1ead;" horiz-adv-x="618" 
d="M132.5 541.5q-8.5 5.5 -8.5 14.5q0 12 12 27l96 125q14 17 22 22t32 5h101q24 0 32.5 -5t21.5 -22l96 -125q12 -15 12 -27q0 -9 -8 -14.5t-23 -5.5h-75q-24 0 -35 5.5t-21 20.5l-50 77l-51 -77q-9 -15 -20 -20.5t-35 -5.5h-75q-15 0 -23.5 5.5zM79.5 45.5
q-56.5 60.5 -56.5 170.5q0 84 38.5 147t109 97.5t162.5 34.5q76 0 134.5 -16.5t107.5 -47.5v-400q0 -19 -7 -25t-28 -6h-102q-11 0 -17 3.5t-10 11.5l-13 30q-29 -31 -69.5 -45.5t-98.5 -14.5q-94 0 -150.5 60.5zM366 140q22 19 22 54v156q-19 9 -48 9q-53 0 -84.5 -37
t-31.5 -104q0 -97 81 -97q39 0 61 19zM286.5 -187.5q-17.5 18.5 -17.5 45.5v25q0 27 17.5 45.5t43.5 18.5h27q27 0 44 -18.5t17 -45.5v-25q0 -27 -17 -45.5t-44 -18.5h-27q-26 0 -43.5 18.5z" />
    <glyph glyph-name="uni1EA7" unicode="&#x1ea7;" horiz-adv-x="618" 
d="M101 703.5q-10 5.5 -23 26.5l-42 75q-8 13 -8 26q0 21 29 21h74q22 0 29.5 -7t15.5 -27l32 -87q2 -4 2 -11q0 -22 -29 -22h-44q-26 0 -36 5.5zM124 562q0 12 12 27l95 119q13 17 21.5 22t32.5 5h85q24 0 32 -5t22 -22l95 -119q12 -15 12 -27q0 -20 -31 -20h-71
q-24 0 -35 5t-20 20l-47 68l-46 -68q-9 -15 -20 -20t-35 -5h-71q-31 0 -31 20zM79.5 45.5q-56.5 60.5 -56.5 170.5q0 84 38.5 147t109 97.5t162.5 34.5q76 0 134.5 -16.5t107.5 -47.5v-400q0 -19 -7 -25t-28 -6h-102q-11 0 -17 3.5t-10 11.5l-13 30q-29 -31 -69.5 -45.5
t-98.5 -14.5q-94 0 -150.5 60.5zM366 140q22 19 22 54v156q-19 9 -48 9q-53 0 -84.5 -37t-31.5 -104q0 -97 81 -97q39 0 61 19z" />
    <glyph glyph-name="uni1EA9" unicode="&#x1ea9;" horiz-adv-x="625" 
d="M454 703v34q0 13 6 18.5t21 5.5q17 0 24.5 4t7.5 14q0 16 -23 16q-27 0 -48 -13q-5 -3 -8 2l-20 44q-4 8 3 11q18 10 44 15.5t53 5.5q101 0 101 -75q0 -32 -19 -49.5t-47 -17.5v-15q0 -17 -17 -17h-61q-17 0 -17 17zM134.5 547q-8.5 5 -8.5 15q0 13 13 27l95 119
q13 17 21.5 22t32.5 5h84q24 0 32.5 -5t21.5 -22l95 -119q12 -15 12 -27q0 -20 -31 -20h-71q-23 0 -34 5t-21 20l-46 68l-47 -68q-9 -15 -20 -20t-35 -5h-71q-14 0 -22.5 5zM79.5 45.5q-56.5 60.5 -56.5 170.5q0 84 38.5 147t109 97.5t162.5 34.5q76 0 134.5 -16.5
t107.5 -47.5v-400q0 -19 -7 -25t-28 -6h-102q-11 0 -17 3.5t-10 11.5l-13 30q-29 -31 -69.5 -45.5t-98.5 -14.5q-94 0 -150.5 60.5zM366 140q22 19 22 54v156q-19 9 -48 9q-53 0 -84.5 -37t-31.5 -104q0 -97 81 -97q39 0 61 19z" />
    <glyph glyph-name="uni1EAB" unicode="&#x1eab;" horiz-adv-x="618" 
d="M393 745.5q-16 4.5 -44 15.5q-37 15 -54 15q-18 0 -28 -4.5t-23 -17.5q-14 -16 -25 -16q-7 0 -15.5 4.5t-23.5 15.5q-15 12 -21 19.5t-6 14.5q0 10 12 23q24 32 49.5 46.5t60.5 14.5q24 0 42 -5.5t43 -16.5q3 -1 18.5 -7.5t28.5 -6.5q16 0 26.5 5.5t23.5 20.5
q10 13 21 13q12 0 40 -20q16 -13 22.5 -20.5t6.5 -15.5q0 -9 -12 -26q-23 -32 -45.5 -44t-61.5 -12q-19 0 -35 4.5zM150.5 547.5q-8.5 5.5 -8.5 14.5q0 13 13 27l95 114q14 17 22.5 22t31.5 5h85q23 0 31.5 -5t22.5 -22l95 -114q12 -15 12 -27q0 -9 -8 -14.5t-23 -5.5h-71
q-23 0 -34 5.5t-21 19.5l-47 63l-46 -63q-10 -14 -20.5 -19.5t-34.5 -5.5h-71q-15 0 -23.5 5.5zM79.5 45.5q-56.5 60.5 -56.5 170.5q0 84 38.5 147t109 97.5t162.5 34.5q76 0 134.5 -16.5t107.5 -47.5v-400q0 -19 -7 -25t-28 -6h-102q-11 0 -17 3.5t-10 11.5l-13 30
q-29 -31 -69.5 -45.5t-98.5 -14.5q-94 0 -150.5 60.5zM366 140q22 19 22 54v156q-19 9 -48 9q-53 0 -84.5 -37t-31.5 -104q0 -97 81 -97q39 0 61 19z" />
    <glyph glyph-name="adieresis" unicode="&#xe4;" horiz-adv-x="618" 
d="M175 549.5q-17 18.5 -17 45.5v25q0 27 17 45.5t44 18.5h27q27 0 44 -18.5t17 -45.5v-25q0 -27 -17 -45.5t-44 -18.5h-27q-27 0 -44 18.5zM389.5 549.5q-17.5 18.5 -17.5 45.5v25q0 27 17.5 45.5t43.5 18.5h27q27 0 44 -18.5t17 -45.5v-25q0 -27 -17 -45.5t-44 -18.5h-27
q-26 0 -43.5 18.5zM79.5 45.5q-56.5 60.5 -56.5 170.5q0 84 38.5 147t109 97.5t162.5 34.5q76 0 134.5 -16.5t107.5 -47.5v-400q0 -19 -7 -25t-28 -6h-102q-11 0 -17 3.5t-10 11.5l-13 30q-29 -31 -69.5 -45.5t-98.5 -14.5q-94 0 -150.5 60.5zM366 140q22 19 22 54v156
q-19 9 -48 9q-53 0 -84.5 -37t-31.5 -104q0 -97 81 -97q39 0 61 19z" />
    <glyph glyph-name="uni1EA1" unicode="&#x1ea1;" horiz-adv-x="618" 
d="M79.5 45.5q-56.5 60.5 -56.5 170.5q0 84 38.5 147t109 97.5t162.5 34.5q76 0 134.5 -16.5t107.5 -47.5v-400q0 -19 -7 -25t-28 -6h-102q-11 0 -17 3.5t-10 11.5l-13 30q-29 -31 -69.5 -45.5t-98.5 -14.5q-94 0 -150.5 60.5zM366 140q22 19 22 54v156q-19 9 -48 9
q-53 0 -84.5 -37t-31.5 -104q0 -97 81 -97q39 0 61 19zM281.5 -187.5q-17.5 18.5 -17.5 45.5v25q0 27 17.5 45.5t43.5 18.5h27q27 0 44 -18.5t17 -45.5v-25q0 -27 -17 -45.5t-44 -18.5h-27q-26 0 -43.5 18.5z" />
    <glyph glyph-name="agrave" unicode="&#xe0;" horiz-adv-x="618" 
d="M288 541.5q-11 6.5 -23 26.5l-65 115q-7 11 -7 22q0 12 10.5 18.5t28.5 6.5h120q26 0 35.5 -7t16.5 -27l44 -121q3 -9 3 -16q0 -11 -8.5 -17.5t-25.5 -6.5h-89q-29 0 -40 6.5zM79.5 45.5q-56.5 60.5 -56.5 170.5q0 84 38.5 147t109 97.5t162.5 34.5q76 0 134.5 -16.5
t107.5 -47.5v-400q0 -19 -7 -25t-28 -6h-102q-11 0 -17 3.5t-10 11.5l-13 30q-29 -31 -69.5 -45.5t-98.5 -14.5q-94 0 -150.5 60.5zM366 140q22 19 22 54v156q-19 9 -48 9q-53 0 -84.5 -37t-31.5 -104q0 -97 81 -97q39 0 61 19z" />
    <glyph glyph-name="uni1EA3" unicode="&#x1ea3;" horiz-adv-x="618" 
d="M260 555v52q0 17 7.5 24t28.5 7q26 0 37.5 5.5t11.5 20.5q0 22 -36 22q-29 0 -67 -18q-8 -3 -12 3l-27 63q-2 4 -2 6q0 5 6 8q21 14 56.5 22.5t68.5 8.5q71 0 106.5 -27.5t35.5 -79.5q0 -46 -26.5 -73.5t-65.5 -27.5v-16q0 -23 -23 -23h-76q-23 0 -23 23zM79.5 45.5
q-56.5 60.5 -56.5 170.5q0 84 38.5 147t109 97.5t162.5 34.5q76 0 134.5 -16.5t107.5 -47.5v-400q0 -19 -7 -25t-28 -6h-102q-11 0 -17 3.5t-10 11.5l-13 30q-29 -31 -69.5 -45.5t-98.5 -14.5q-94 0 -150.5 60.5zM366 140q22 19 22 54v156q-19 9 -48 9q-53 0 -84.5 -37
t-31.5 -104q0 -97 81 -97q39 0 61 19z" />
    <glyph glyph-name="uni0251" unicode="&#x251;" horiz-adv-x="618" 
d="M79.5 45.5q-56.5 60.5 -56.5 170.5q0 84 38.5 147t109 97.5t162.5 34.5q76 0 134.5 -16.5t107.5 -47.5v-400q0 -19 -7 -25t-28 -6h-102q-11 0 -17 3.5t-10 11.5l-13 30q-29 -31 -69.5 -45.5t-98.5 -14.5q-94 0 -150.5 60.5zM366 140q22 19 22 54v156q-19 9 -48 9
q-53 0 -84.5 -37t-31.5 -104q0 -97 81 -97q39 0 61 19z" />
    <glyph glyph-name="amacron" unicode="&#x101;" horiz-adv-x="618" 
d="M164.5 558.5q-10.5 11.5 -10.5 38.5v46q0 27 10.5 38.5t38.5 11.5h269q28 0 38 -11.5t10 -38.5v-46q0 -27 -10 -38.5t-38 -11.5h-269q-28 0 -38.5 11.5zM79.5 45.5q-56.5 60.5 -56.5 170.5q0 84 38.5 147t109 97.5t162.5 34.5q76 0 134.5 -16.5t107.5 -47.5v-400
q0 -19 -7 -25t-28 -6h-102q-11 0 -17 3.5t-10 11.5l-13 30q-29 -31 -69.5 -45.5t-98.5 -14.5q-94 0 -150.5 60.5zM366 140q22 19 22 54v156q-19 9 -48 9q-53 0 -84.5 -37t-31.5 -104q0 -97 81 -97q39 0 61 19z" />
    <glyph glyph-name="aogonek" unicode="&#x105;" horiz-adv-x="618" 
d="M467.5 478.5q58.5 -16.5 107.5 -47.5v-400q0 -17 -6 -23.5t-23 -7.5q2 -5 -3 -9q-38 -47 -49.5 -65t-11.5 -38q0 -27 24 -27q14 0 22 4q6 2 7 2q4 0 7 -7l21 -45q2 -4 2 -6q0 -6 -12 -11q-35 -16 -102 -16q-50 0 -75.5 25t-25.5 64q0 28 14.5 57t46.5 66q7 7 10 9
q-6 5 -10 12l-13 30q-29 -31 -69.5 -45.5t-98.5 -14.5q-94 0 -150.5 60.5t-56.5 170.5q0 84 38.5 147t109 97.5t162.5 34.5q76 0 134.5 -16.5zM388 350q-19 9 -48 9q-53 0 -84.5 -37t-31.5 -104q0 -97 81 -97q39 0 61 19t22 54v156z" />
    <glyph glyph-name="aring" unicode="&#xe5;" horiz-adv-x="618" 
d="M251 578q-36 36 -36 88t36 88t88 36t88 -36t36 -88t-36 -88t-88 -36t-88 36zM366 638.5q11 11.5 11 27.5t-11 27t-27 11t-27.5 -11t-11.5 -27t11.5 -27.5t27.5 -11.5t27 11.5zM79.5 45.5q-56.5 60.5 -56.5 170.5q0 84 38.5 147t109 97.5t162.5 34.5q76 0 134.5 -16.5
t107.5 -47.5v-400q0 -19 -7 -25t-28 -6h-102q-11 0 -17 3.5t-10 11.5l-13 30q-29 -31 -69.5 -45.5t-98.5 -14.5q-94 0 -150.5 60.5zM366 140q22 19 22 54v156q-19 9 -48 9q-53 0 -84.5 -37t-31.5 -104q0 -97 81 -97q39 0 61 19z" />
    <glyph glyph-name="aringacute" unicode="&#x1fb;" horiz-adv-x="618" 
d="M243 825q0 5 3 12l44 97q7 16 16.5 21.5t35.5 5.5h120q18 0 28.5 -5t10.5 -15q0 -8 -7 -18l-65 -92q-12 -16 -23 -21t-40 -5h-89q-34 0 -34 20zM251 565q-36 36 -36 88t36 88t88 36t88 -36t36 -88t-36 -88t-88 -36t-88 36zM366 625.5q11 11.5 11 27.5t-11 27t-27 11
t-27.5 -11t-11.5 -27t11.5 -27.5t27.5 -11.5t27 11.5zM79.5 45.5q-56.5 60.5 -56.5 170.5q0 84 38.5 147t109 97.5t162.5 34.5q76 0 134.5 -16.5t107.5 -47.5v-400q0 -19 -7 -25t-28 -6h-102q-11 0 -17 3.5t-10 11.5l-13 30q-29 -31 -69.5 -45.5t-98.5 -14.5
q-94 0 -150.5 60.5zM366 140q22 19 22 54v156q-19 9 -48 9q-53 0 -84.5 -37t-31.5 -104q0 -97 81 -97q39 0 61 19z" />
    <glyph glyph-name="atilde" unicode="&#xe3;" horiz-adv-x="618" 
d="M396 557.5q-19 6.5 -47 20.5q-23 11 -39 17t-32 6q-18 0 -29.5 -7t-27.5 -25q-10 -12 -23 -12q-18 0 -52 27q-17 12 -24.5 22t-7.5 20q0 14 13 31q31 43 59 62.5t68 19.5q29 0 52.5 -8t50.5 -22q23 -11 35 -15.5t26 -4.5q17 0 28 7t28 27q11 13 23 13q17 0 52 -26
q17 -13 24.5 -23t7.5 -20q0 -15 -13 -32q-31 -45 -59.5 -64.5t-71.5 -19.5q-22 0 -41 6.5zM79.5 45.5q-56.5 60.5 -56.5 170.5q0 84 38.5 147t109 97.5t162.5 34.5q76 0 134.5 -16.5t107.5 -47.5v-400q0 -19 -7 -25t-28 -6h-102q-11 0 -17 3.5t-10 11.5l-13 30
q-29 -31 -69.5 -45.5t-98.5 -14.5q-94 0 -150.5 60.5zM366 140q22 19 22 54v156q-19 9 -48 9q-53 0 -84.5 -37t-31.5 -104q0 -97 81 -97q39 0 61 19z" />
    <glyph glyph-name="ae" unicode="&#xe6;" horiz-adv-x="931" 
d="M80 24q-57 39 -57 118q0 80 52 118t155 38h128v11q0 30 -21 46t-82 16q-33 0 -67.5 -7t-57.5 -18q-12 -5 -17 -5q-10 0 -16 13l-33 63q-5 10 -5 15q0 9 13 18q71 45 192 45q139 0 193 -79q28 38 74.5 58.5t107.5 20.5q133 0 201 -65.5t68 -181.5q0 -26 -10 -38t-33 -12
h-310q0 -41 34 -65t94 -24q41 0 67 7.5t55 22.5q12 5 16 5q9 0 15 -12l34 -64q5 -10 5 -15q0 -10 -12 -17q-44 -27 -90 -39t-112 -12q-70 0 -122 23t-82 68q-38 -45 -94.5 -68t-126.5 -23q-99 0 -156 39zM730 297q0 80 -88 80q-44 0 -65.5 -21t-21.5 -59h175zM358 187v13
h-108q-30 0 -44.5 -10.5t-14.5 -36.5q0 -44 68 -44q99 0 99 78z" />
    <glyph glyph-name="aeacute" unicode="&#x1fd;" horiz-adv-x="931" 
d="M361 576q0 8 3 15l44 121q7 20 16.5 27t35.5 7h120q18 0 28.5 -6.5t10.5 -18.5q0 -11 -7 -22l-65 -115q-12 -20 -23 -26.5t-40 -6.5h-89q-34 0 -34 25zM80 24q-57 39 -57 118q0 80 52 118t155 38h128v11q0 30 -21 46t-82 16q-33 0 -67.5 -7t-57.5 -18q-12 -5 -17 -5
q-10 0 -16 13l-33 63q-5 10 -5 15q0 9 13 18q71 45 192 45q139 0 193 -79q28 38 74.5 58.5t107.5 20.5q133 0 201 -65.5t68 -181.5q0 -26 -10 -38t-33 -12h-310q0 -41 34 -65t94 -24q41 0 67 7.5t55 22.5q12 5 16 5q9 0 15 -12l34 -64q5 -10 5 -15q0 -10 -12 -17
q-44 -27 -90 -39t-112 -12q-70 0 -122 23t-82 68q-38 -45 -94.5 -68t-126.5 -23q-99 0 -156 39zM730 297q0 80 -88 80q-44 0 -65.5 -21t-21.5 -59h175zM358 187v13h-108q-30 0 -44.5 -10.5t-14.5 -36.5q0 -44 68 -44q99 0 99 78z" />
    <glyph glyph-name="b" unicode="b" horiz-adv-x="623" 
d="M157 5q-70 20 -114 51v573q0 26 12 38.5t40 12.5h93q29 0 41 -12.5t12 -38.5v-162q18 12 51 20t64 8q119 0 181.5 -62t62.5 -174q0 -130 -76 -202t-221 -72q-76 0 -146 20zM398 258q0 52 -18.5 76.5t-61.5 24.5q-33 0 -55.5 -18t-22.5 -51v-158q20 -11 53 -11
q105 0 105 137z" />
    <glyph glyph-name="c" unicode="c" horiz-adv-x="561" 
d="M99 50q-76 65 -76 189q0 76 35 134t101.5 90t157.5 32q69 0 116.5 -13t84.5 -40q11 -7 11 -18q0 -8 -8 -21l-41 -71q-7 -14 -17 -14q-6 0 -19 8q-27 17 -50.5 25t-58.5 8q-50 0 -80.5 -32t-30.5 -88q0 -57 31 -87.5t85 -30.5q32 0 58 9t53 25q14 8 20 8q9 0 16 -14
l45 -77q5 -10 5 -16q0 -9 -12 -17q-42 -27 -91.5 -40.5t-118.5 -13.5q-140 0 -216 65z" />
    <glyph glyph-name="cacute" unicode="&#x107;" horiz-adv-x="561" 
d="M213 560q0 8 3 15l44 121q7 20 16.5 27t35.5 7h120q18 0 28.5 -6.5t10.5 -18.5q0 -11 -7 -22l-65 -115q-12 -20 -23 -26.5t-40 -6.5h-89q-34 0 -34 25zM99 50q-76 65 -76 189q0 76 35 134t101.5 90t157.5 32q69 0 116.5 -13t84.5 -40q11 -7 11 -18q0 -8 -8 -21l-41 -71
q-7 -14 -17 -14q-6 0 -19 8q-27 17 -50.5 25t-58.5 8q-50 0 -80.5 -32t-30.5 -88q0 -57 31 -87.5t85 -30.5q32 0 58 9t53 25q14 8 20 8q9 0 16 -14l45 -77q5 -10 5 -16q0 -9 -12 -17q-42 -27 -91.5 -40.5t-118.5 -13.5q-140 0 -216 65z" />
    <glyph glyph-name="ccaron" unicode="&#x10d;" horiz-adv-x="560" 
d="M218 548.5q-8 4.5 -22 21.5l-96 125q-12 17 -12 28q0 19 30 19h77q24 0 34.5 -5t20.5 -20l51 -77l50 77q10 15 20.5 20t34.5 5h77q30 0 30 -19q0 -11 -12 -28l-96 -125q-12 -17 -20.5 -21.5t-33.5 -4.5h-101q-24 0 -32 4.5zM99 50q-76 65 -76 189q0 76 35 134t101.5 90
t157.5 32q69 0 116.5 -13t84.5 -40q11 -7 11 -18q0 -8 -8 -21l-41 -71q-7 -14 -17 -14q-6 0 -19 8q-27 17 -50.5 25t-58.5 8q-50 0 -80.5 -32t-30.5 -88q0 -57 31 -87.5t85 -30.5q32 0 58 9t53 25q14 8 20 8q9 0 16 -14l45 -77q5 -10 5 -16q0 -9 -12 -17
q-42 -27 -91.5 -40.5t-118.5 -13.5q-140 0 -216 65z" />
    <glyph glyph-name="ccedilla" unicode="&#xe7;" horiz-adv-x="561" 
d="M537 56q0 -9 -12 -17q-34 -22 -72.5 -35t-86.5 -17q5 -1 5 -7q0 -5 -2 -8l-23 -50q34 -6 50 -24t16 -50q0 -38 -33 -63t-98 -25q-27 0 -56 5t-44 13q-9 5 -11 8t1 10l21 53q3 7 8 7q4 0 10 -3q20 -10 43 -10q33 0 33 21q0 15 -12 20.5t-40 5.5h-17q-8 0 -10.5 4.5
t0.5 11.5l27 68q3 8 7.5 11t14.5 3h2q-113 13 -174 77t-61 174q0 76 35 134t101.5 90t157.5 32q69 0 116.5 -13t84.5 -40q11 -7 11 -18q0 -8 -8 -21l-41 -71q-7 -14 -17 -14q-6 0 -19 8q-27 17 -50.5 25t-58.5 8q-50 0 -80.5 -32t-30.5 -88q0 -57 31 -87.5t85 -30.5
q32 0 58 9t53 25q14 8 20 8q9 0 16 -14l45 -77q5 -10 5 -16z" />
    <glyph glyph-name="ccircumflex" unicode="&#x109;" horiz-adv-x="560" 
d="M100.5 541.5q-8.5 5.5 -8.5 14.5q0 12 12 27l96 125q14 17 22 22t32 5h101q24 0 32.5 -5t21.5 -22l96 -125q12 -15 12 -27q0 -9 -8 -14.5t-23 -5.5h-75q-24 0 -35 5.5t-21 20.5l-50 77l-51 -77q-9 -15 -20 -20.5t-35 -5.5h-75q-15 0 -23.5 5.5zM99 50q-76 65 -76 189
q0 76 35 134t101.5 90t157.5 32q69 0 116.5 -13t84.5 -40q11 -7 11 -18q0 -8 -8 -21l-41 -71q-7 -14 -17 -14q-6 0 -19 8q-27 17 -50.5 25t-58.5 8q-50 0 -80.5 -32t-30.5 -88q0 -57 31 -87.5t85 -30.5q32 0 58 9t53 25q14 8 20 8q9 0 16 -14l45 -77q5 -10 5 -16
q0 -9 -12 -17q-42 -27 -91.5 -40.5t-118.5 -13.5q-140 0 -216 65z" />
    <glyph glyph-name="cdotaccent" unicode="&#x10b;" horiz-adv-x="560" 
d="M247 563.5q-17 18.5 -17 45.5v25q0 27 17 45.5t44 18.5h27q27 0 44 -18.5t17 -45.5v-25q0 -27 -17 -45.5t-44 -18.5h-27q-27 0 -44 18.5zM99 50q-76 65 -76 189q0 76 35 134t101.5 90t157.5 32q69 0 116.5 -13t84.5 -40q11 -7 11 -18q0 -8 -8 -21l-41 -71q-7 -14 -17 -14
q-6 0 -19 8q-27 17 -50.5 25t-58.5 8q-50 0 -80.5 -32t-30.5 -88q0 -57 31 -87.5t85 -30.5q32 0 58 9t53 25q14 8 20 8q9 0 16 -14l45 -77q5 -10 5 -16q0 -9 -12 -17q-42 -27 -91.5 -40.5t-118.5 -13.5q-140 0 -216 65z" />
    <glyph glyph-name="d" unicode="d" horiz-adv-x="623" 
d="M98 50q-75 65 -75 193q0 115 64 183.5t181 68.5q33 0 64 -7.5t49 -19.5v161q0 26 12 38.5t41 12.5h93q29 0 41 -12.5t12 -38.5v-573q-43 -31 -112 -51t-146 -20q-149 0 -224 65zM382 132v161q0 66 -71 66q-44 0 -65.5 -31.5t-21.5 -85.5q0 -65 26 -93t78 -28q34 0 54 11z
" />
    <glyph glyph-name="eth" unicode="&#xf0;" horiz-adv-x="671" 
d="M79 36q-56 51 -56 157q0 85 36.5 148.5t103.5 98.5t154 35q54 0 92 -13.5t69 -41.5q-1 42 -8 65t-27 38l-13 -19q-7 -11 -19 -11h-91q-7 0 -9 4t1 9l37 51q-6 1 -18 1q-54 0 -128 -31q-13 -6 -21 -6q-9 0 -14 12l-26 71q-4 12 -4 17q0 14 15 22q90 52 219 52q39 0 70 -7
l13 18q7 10 16 10h91q7 0 9 -4t-1 -9l-35 -50q52 -33 81 -90.5t29 -139.5q0 -53 -14 -121q-35 -163 -133.5 -240t-230.5 -77t-188 51zM420 267q2 16 2 22q0 36 -19.5 54t-56.5 18q-59 0 -91.5 -38t-32.5 -124q0 -71 75 -71q103 0 123 139z" />
    <glyph glyph-name="dcaron" unicode="&#x10f;" horiz-adv-x="805" 
d="M609 584q0 8 3 15l44 121q7 20 16.5 27t36.5 7h103q18 0 28.5 -6.5t10.5 -18.5q0 -11 -7 -22l-65 -115q-12 -21 -23 -27t-40 -6h-72q-35 0 -35 25zM98 50q-75 65 -75 193q0 115 64 183.5t181 68.5q33 0 64 -7.5t49 -19.5v161q0 26 12 38.5t41 12.5h93q29 0 41 -12.5
t12 -38.5v-573q-43 -31 -112 -51t-146 -20q-149 0 -224 65zM382 132v161q0 66 -71 66q-44 0 -65.5 -31.5t-21.5 -85.5q0 -65 26 -93t78 -28q34 0 54 11z" />
    <glyph glyph-name="dcroat" unicode="&#x111;" horiz-adv-x="625" 
d="M98 50q-75 65 -75 193q0 115 64 183.5t181 68.5q33 0 64 -7.5t49 -19.5v52h-78q-21 0 -28 7t-7 27v47q0 21 7 28t28 7h79q0 23 16 33.5t50 10.5h65q34 0 48.5 -9.5t16.5 -34.5h19q21 0 28 -7t7 -28v-47q0 -21 -7 -27.5t-29 -6.5h-16v-464q-43 -31 -112 -51t-146 -20
q-149 0 -224 65zM382 132v161q0 66 -71 66q-44 0 -65.5 -31.5t-21.5 -85.5q0 -65 26 -93t78 -28q34 0 54 11z" />
    <glyph glyph-name="uni1E0D" unicode="&#x1e0d;" horiz-adv-x="623" 
d="M98 50q-75 65 -75 193q0 115 64 183.5t181 68.5q33 0 64 -7.5t49 -19.5v161q0 26 12 38.5t41 12.5h93q29 0 41 -12.5t12 -38.5v-573q-43 -31 -112 -51t-146 -20q-149 0 -224 65zM382 132v161q0 66 -71 66q-44 0 -65.5 -31.5t-21.5 -85.5q0 -65 26 -93t78 -28q34 0 54 11z
M274.5 -187.5q-17.5 18.5 -17.5 45.5v25q0 27 17.5 45.5t43.5 18.5h27q27 0 44 -18.5t17 -45.5v-25q0 -27 -17 -45.5t-44 -18.5h-27q-26 0 -43.5 18.5z" />
    <glyph glyph-name="uni1E0F" unicode="&#x1e0f;" horiz-adv-x="623" 
d="M98 50q-75 65 -75 193q0 115 64 183.5t181 68.5q33 0 64 -7.5t49 -19.5v161q0 26 12 38.5t41 12.5h93q29 0 41 -12.5t12 -38.5v-573q-43 -31 -112 -51t-146 -20q-149 0 -224 65zM382 132v161q0 66 -71 66q-44 0 -65.5 -31.5t-21.5 -85.5q0 -65 26 -93t78 -28q34 0 54 11z
M156 -175.5q-10 11.5 -10 37.5v31q0 26 10 38t38 12h243q28 0 38.5 -12t10.5 -38v-31q0 -26 -10.5 -37.5t-38.5 -11.5h-243q-28 0 -38 11.5z" />
    <glyph glyph-name="e" unicode="e" horiz-adv-x="594" 
d="M164.5 13q-65.5 28 -103.5 84t-38 137q0 127 72 194t207 67q132 0 200.5 -65.5t68.5 -181.5q0 -50 -44 -50h-314q0 -43 32.5 -66t98.5 -23q41 0 68.5 7.5t55.5 22.5q12 5 16 5q9 0 15 -12l34 -64q5 -10 5 -15q0 -9 -12 -17q-41 -27 -93 -39t-119 -12q-84 0 -149.5 28z
M391 297q0 38 -22 59t-66 21t-67 -21.5t-23 -58.5h178z" />
    <glyph glyph-name="eacute" unicode="&#xe9;" horiz-adv-x="594" 
d="M222 560q0 8 3 15l44 121q7 20 16.5 27t35.5 7h120q18 0 28.5 -6.5t10.5 -18.5q0 -11 -7 -22l-65 -115q-12 -20 -23 -26.5t-40 -6.5h-89q-34 0 -34 25zM164.5 13q-65.5 28 -103.5 84t-38 137q0 127 72 194t207 67q132 0 200.5 -65.5t68.5 -181.5q0 -50 -44 -50h-314
q0 -43 32.5 -66t98.5 -23q41 0 68.5 7.5t55.5 22.5q12 5 16 5q9 0 15 -12l34 -64q5 -10 5 -15q0 -9 -12 -17q-41 -27 -93 -39t-119 -12q-84 0 -149.5 28zM391 297q0 38 -22 59t-66 21t-67 -21.5t-23 -58.5h178z" />
    <glyph glyph-name="ebreve" unicode="&#x115;" horiz-adv-x="594" 
d="M168.5 586q-48.5 48 -48.5 125q0 8 4.5 13t11.5 5h108q10 0 13.5 -4.5t3.5 -14.5q0 -49 48 -49t48 49q0 10 3.5 14.5t13.5 4.5h108q7 0 11.5 -5t4.5 -13q0 -77 -49 -125t-140 -48q-92 0 -140.5 48zM164.5 13q-65.5 28 -103.5 84t-38 137q0 127 72 194t207 67
q132 0 200.5 -65.5t68.5 -181.5q0 -50 -44 -50h-314q0 -43 32.5 -66t98.5 -23q41 0 68.5 7.5t55.5 22.5q12 5 16 5q9 0 15 -12l34 -64q5 -10 5 -15q0 -9 -12 -17q-41 -27 -93 -39t-119 -12q-84 0 -149.5 28zM391 297q0 38 -22 59t-66 21t-67 -21.5t-23 -58.5h178z" />
    <glyph glyph-name="ecaron" unicode="&#x11b;" horiz-adv-x="594" 
d="M221 548.5q-8 4.5 -22 21.5l-96 125q-12 17 -12 28q0 19 30 19h77q24 0 34.5 -5t20.5 -20l51 -77l50 77q10 15 20.5 20t34.5 5h77q30 0 30 -19q0 -11 -12 -28l-96 -125q-12 -17 -20.5 -21.5t-33.5 -4.5h-101q-24 0 -32 4.5zM164.5 13q-65.5 28 -103.5 84t-38 137
q0 127 72 194t207 67q132 0 200.5 -65.5t68.5 -181.5q0 -50 -44 -50h-314q0 -43 32.5 -66t98.5 -23q41 0 68.5 7.5t55.5 22.5q12 5 16 5q9 0 15 -12l34 -64q5 -10 5 -15q0 -9 -12 -17q-41 -27 -93 -39t-119 -12q-84 0 -149.5 28zM391 297q0 38 -22 59t-66 21t-67 -21.5
t-23 -58.5h178z" />
    <glyph glyph-name="ecircumflex" unicode="&#xea;" horiz-adv-x="594" 
d="M106.5 541.5q-8.5 5.5 -8.5 14.5q0 12 12 27l96 125q14 17 22 22t32 5h101q24 0 32.5 -5t21.5 -22l96 -125q12 -15 12 -27q0 -9 -8 -14.5t-23 -5.5h-75q-24 0 -35 5.5t-21 20.5l-50 77l-51 -77q-9 -15 -20 -20.5t-35 -5.5h-75q-15 0 -23.5 5.5zM164.5 13
q-65.5 28 -103.5 84t-38 137q0 127 72 194t207 67q132 0 200.5 -65.5t68.5 -181.5q0 -50 -44 -50h-314q0 -43 32.5 -66t98.5 -23q41 0 68.5 7.5t55.5 22.5q12 5 16 5q9 0 15 -12l34 -64q5 -10 5 -15q0 -9 -12 -17q-41 -27 -93 -39t-119 -12q-84 0 -149.5 28zM391 297
q0 38 -22 59t-66 21t-67 -21.5t-23 -58.5h178z" />
    <glyph glyph-name="uni1EBF" unicode="&#x1ebf;" horiz-adv-x="594" 
d="M419 712q0 7 2 11l32 87q8 20 15.5 27t29.5 7h74q29 0 29 -21q0 -13 -8 -26l-42 -75q-13 -21 -23 -26.5t-36 -5.5h-44q-29 0 -29 22zM98 554q0 12 12 27l95 119q14 17 22 22t32 5h85q24 0 32.5 -5t21.5 -22l95 -119q12 -15 12 -27q0 -20 -31 -20h-71q-24 0 -35 5t-20 20
l-46 68l-47 -68q-9 -15 -20 -20t-35 -5h-71q-31 0 -31 20zM164.5 13q-65.5 28 -103.5 84t-38 137q0 127 72 194t207 67q132 0 200.5 -65.5t68.5 -181.5q0 -50 -44 -50h-314q0 -43 32.5 -66t98.5 -23q41 0 68.5 7.5t55.5 22.5q12 5 16 5q9 0 15 -12l34 -64q5 -10 5 -15
q0 -9 -12 -17q-41 -27 -93 -39t-119 -12q-84 0 -149.5 28zM391 297q0 38 -22 59t-66 21t-67 -21.5t-23 -58.5h178z" />
    <glyph glyph-name="uni1EC7" unicode="&#x1ec7;" horiz-adv-x="594" 
d="M98.5 541.5q-8.5 5.5 -8.5 14.5q0 12 12 27l96 125q14 17 22 22t32 5h101q24 0 32.5 -5t21.5 -22l96 -125q12 -15 12 -27q0 -9 -8 -14.5t-23 -5.5h-75q-24 0 -35 5.5t-21 20.5l-50 77l-51 -77q-9 -15 -20 -20.5t-35 -5.5h-75q-15 0 -23.5 5.5zM164.5 13
q-65.5 28 -103.5 84t-38 137q0 127 72 194t207 67q132 0 200.5 -65.5t68.5 -181.5q0 -50 -44 -50h-314q0 -43 32.5 -66t98.5 -23q41 0 68.5 7.5t55.5 22.5q12 5 16 5q9 0 15 -12l34 -64q5 -10 5 -15q0 -9 -12 -17q-41 -27 -93 -39t-119 -12q-84 0 -149.5 28zM391 297
q0 38 -22 59t-66 21t-67 -21.5t-23 -58.5h178zM243.5 -187.5q-17.5 18.5 -17.5 45.5v25q0 27 17.5 45.5t43.5 18.5h27q27 0 44 -18.5t17 -45.5v-25q0 -27 -17 -45.5t-44 -18.5h-27q-26 0 -43.5 18.5z" />
    <glyph glyph-name="uni1EC1" unicode="&#x1ec1;" horiz-adv-x="594" 
d="M88 695.5q-10 5.5 -23 26.5l-42 75q-8 13 -8 26q0 21 29 21h74q22 0 29.5 -7t15.5 -27l32 -87q2 -4 2 -11q0 -22 -29 -22h-44q-26 0 -36 5.5zM111 554q0 12 12 27l95 119q13 17 21.5 22t32.5 5h85q24 0 32 -5t22 -22l95 -119q12 -15 12 -27q0 -20 -31 -20h-71
q-24 0 -35 5t-20 20l-47 68l-46 -68q-9 -15 -20 -20t-35 -5h-71q-31 0 -31 20zM164.5 13q-65.5 28 -103.5 84t-38 137q0 127 72 194t207 67q132 0 200.5 -65.5t68.5 -181.5q0 -50 -44 -50h-314q0 -43 32.5 -66t98.5 -23q41 0 68.5 7.5t55.5 22.5q12 5 16 5q9 0 15 -12
l34 -64q5 -10 5 -15q0 -9 -12 -17q-41 -27 -93 -39t-119 -12q-84 0 -149.5 28zM391 297q0 38 -22 59t-66 21t-67 -21.5t-23 -58.5h178z" />
    <glyph glyph-name="uni1EC3" unicode="&#x1ec3;" horiz-adv-x="594" 
d="M421 695v34q0 13 6 18.5t21 5.5q17 0 24.5 4t7.5 14q0 16 -23 16q-27 0 -48 -13q-5 -3 -8 2l-20 44q-4 8 3 11q18 10 44 15.5t53 5.5q101 0 101 -75q0 -32 -19 -49.5t-47 -17.5v-15q0 -17 -17 -17h-61q-17 0 -17 17zM101.5 539q-8.5 5 -8.5 15q0 13 13 27l95 119
q13 17 21.5 22t32.5 5h84q24 0 32.5 -5t21.5 -22l95 -119q12 -15 12 -27q0 -20 -31 -20h-71q-23 0 -34 5t-21 20l-46 68l-47 -68q-9 -15 -20 -20t-35 -5h-71q-14 0 -22.5 5zM164.5 13q-65.5 28 -103.5 84t-38 137q0 127 72 194t207 67q132 0 200.5 -65.5t68.5 -181.5
q0 -50 -44 -50h-314q0 -43 32.5 -66t98.5 -23q41 0 68.5 7.5t55.5 22.5q12 5 16 5q9 0 15 -12l34 -64q5 -10 5 -15q0 -9 -12 -17q-41 -27 -93 -39t-119 -12q-84 0 -149.5 28zM391 297q0 38 -22 59t-66 21t-67 -21.5t-23 -58.5h178z" />
    <glyph glyph-name="uni1EC5" unicode="&#x1ec5;" horiz-adv-x="594" 
d="M350 737.5q-16 4.5 -44 15.5q-38 15 -54 15q-18 0 -28 -4.5t-23 -17.5q-14 -16 -25 -16q-7 0 -15.5 4.5t-23.5 15.5q-15 12 -21 19.5t-6 14.5q0 10 12 23q24 32 49.5 46.5t60.5 14.5q24 0 42 -5.5t43 -16.5q3 -1 18.5 -7.5t28.5 -6.5q16 0 26.5 5.5t23.5 20.5
q10 13 21 13q12 0 40 -20q16 -13 22.5 -20.5t6.5 -15.5q0 -9 -12 -26q-23 -32 -45.5 -44t-61.5 -12q-19 0 -35 4.5zM107.5 539.5q-8.5 5.5 -8.5 14.5q0 13 13 27l95 114q14 17 22.5 22t31.5 5h85q23 0 31.5 -5t22.5 -22l95 -114q12 -15 12 -27q0 -9 -8 -14.5t-23 -5.5h-71
q-23 0 -34 5.5t-21 19.5l-47 63l-46 -63q-10 -14 -20.5 -19.5t-34.5 -5.5h-71q-15 0 -23.5 5.5zM164.5 13q-65.5 28 -103.5 84t-38 137q0 127 72 194t207 67q132 0 200.5 -65.5t68.5 -181.5q0 -50 -44 -50h-314q0 -43 32.5 -66t98.5 -23q41 0 68.5 7.5t55.5 22.5q12 5 16 5
q9 0 15 -12l34 -64q5 -10 5 -15q0 -9 -12 -17q-41 -27 -93 -39t-119 -12q-84 0 -149.5 28zM391 297q0 38 -22 59t-66 21t-67 -21.5t-23 -58.5h178z" />
    <glyph glyph-name="edieresis" unicode="&#xeb;" horiz-adv-x="594" 
d="M147 547.5q-17 18.5 -17 45.5v25q0 27 17 45.5t44 18.5h27q27 0 44 -18.5t17 -45.5v-25q0 -27 -17 -45.5t-44 -18.5h-27q-27 0 -44 18.5zM361.5 547.5q-17.5 18.5 -17.5 45.5v25q0 27 17.5 45.5t43.5 18.5h27q27 0 44 -18.5t17 -45.5v-25q0 -27 -17 -45.5t-44 -18.5h-27
q-26 0 -43.5 18.5zM164.5 13q-65.5 28 -103.5 84t-38 137q0 127 72 194t207 67q132 0 200.5 -65.5t68.5 -181.5q0 -50 -44 -50h-314q0 -43 32.5 -66t98.5 -23q41 0 68.5 7.5t55.5 22.5q12 5 16 5q9 0 15 -12l34 -64q5 -10 5 -15q0 -9 -12 -17q-41 -27 -93 -39t-119 -12
q-84 0 -149.5 28zM391 297q0 38 -22 59t-66 21t-67 -21.5t-23 -58.5h178z" />
    <glyph glyph-name="edotaccent" unicode="&#x117;" horiz-adv-x="594" 
d="M248 563.5q-17 18.5 -17 45.5v25q0 27 17 45.5t44 18.5h27q27 0 44 -18.5t17 -45.5v-25q0 -27 -17 -45.5t-44 -18.5h-27q-27 0 -44 18.5zM164.5 13q-65.5 28 -103.5 84t-38 137q0 127 72 194t207 67q132 0 200.5 -65.5t68.5 -181.5q0 -50 -44 -50h-314q0 -43 32.5 -66
t98.5 -23q41 0 68.5 7.5t55.5 22.5q12 5 16 5q9 0 15 -12l34 -64q5 -10 5 -15q0 -9 -12 -17q-41 -27 -93 -39t-119 -12q-84 0 -149.5 28zM391 297q0 38 -22 59t-66 21t-67 -21.5t-23 -58.5h178z" />
    <glyph glyph-name="uni1EB9" unicode="&#x1eb9;" horiz-adv-x="594" 
d="M164.5 13q-65.5 28 -103.5 84t-38 137q0 127 72 194t207 67q132 0 200.5 -65.5t68.5 -181.5q0 -50 -44 -50h-314q0 -43 32.5 -66t98.5 -23q41 0 68.5 7.5t55.5 22.5q12 5 16 5q9 0 15 -12l34 -64q5 -10 5 -15q0 -9 -12 -17q-41 -27 -93 -39t-119 -12q-84 0 -149.5 28z
M391 297q0 38 -22 59t-66 21t-67 -21.5t-23 -58.5h178zM235.5 -187.5q-17.5 18.5 -17.5 45.5v25q0 27 17.5 45.5t43.5 18.5h27q27 0 44 -18.5t17 -45.5v-25q0 -27 -17 -45.5t-44 -18.5h-27q-26 0 -43.5 18.5z" />
    <glyph glyph-name="egrave" unicode="&#xe8;" horiz-adv-x="594" 
d="M246 541.5q-11 6.5 -23 26.5l-65 115q-7 11 -7 22q0 12 10.5 18.5t28.5 6.5h120q26 0 35.5 -7t16.5 -27l44 -121q3 -9 3 -16q0 -11 -8.5 -17.5t-25.5 -6.5h-89q-29 0 -40 6.5zM164.5 13q-65.5 28 -103.5 84t-38 137q0 127 72 194t207 67q132 0 200.5 -65.5t68.5 -181.5
q0 -50 -44 -50h-314q0 -43 32.5 -66t98.5 -23q41 0 68.5 7.5t55.5 22.5q12 5 16 5q9 0 15 -12l34 -64q5 -10 5 -15q0 -9 -12 -17q-41 -27 -93 -39t-119 -12q-84 0 -149.5 28zM391 297q0 38 -22 59t-66 21t-67 -21.5t-23 -58.5h178z" />
    <glyph glyph-name="uni1EBB" unicode="&#x1ebb;" horiz-adv-x="594" 
d="M252 555v52q0 17 7.5 24t28.5 7q26 0 37.5 5.5t11.5 20.5q0 22 -36 22q-29 0 -67 -18q-8 -3 -12 3l-27 63q-2 4 -2 6q0 5 6 8q21 14 56.5 22.5t68.5 8.5q71 0 106.5 -27.5t35.5 -79.5q0 -46 -26.5 -73.5t-65.5 -27.5v-16q0 -23 -23 -23h-76q-23 0 -23 23zM164.5 13
q-65.5 28 -103.5 84t-38 137q0 127 72 194t207 67q132 0 200.5 -65.5t68.5 -181.5q0 -50 -44 -50h-314q0 -43 32.5 -66t98.5 -23q41 0 68.5 7.5t55.5 22.5q12 5 16 5q9 0 15 -12l34 -64q5 -10 5 -15q0 -9 -12 -17q-41 -27 -93 -39t-119 -12q-84 0 -149.5 28zM391 297
q0 38 -22 59t-66 21t-67 -21.5t-23 -58.5h178z" />
    <glyph glyph-name="emacron" unicode="&#x113;" horiz-adv-x="594" 
d="M130.5 574.5q-10.5 11.5 -10.5 38.5v46q0 27 10.5 38.5t38.5 11.5h269q28 0 38 -11.5t10 -38.5v-46q0 -27 -10 -38.5t-38 -11.5h-269q-28 0 -38.5 11.5zM164.5 13q-65.5 28 -103.5 84t-38 137q0 127 72 194t207 67q132 0 200.5 -65.5t68.5 -181.5q0 -50 -44 -50h-314
q0 -43 32.5 -66t98.5 -23q41 0 68.5 7.5t55.5 22.5q12 5 16 5q9 0 15 -12l34 -64q5 -10 5 -15q0 -9 -12 -17q-41 -27 -93 -39t-119 -12q-84 0 -149.5 28zM391 297q0 38 -22 59t-66 21t-67 -21.5t-23 -58.5h178z" />
    <glyph glyph-name="eogonek" unicode="&#x119;" horiz-adv-x="594" 
d="M527 198h-314q0 -43 32.5 -66t98.5 -23q41 0 68.5 7.5t55.5 22.5q12 5 16 5q9 0 15 -12l34 -64q5 -10 5 -15q0 -7 -6 -13l-2 -2q-38 -47 -49.5 -65t-11.5 -38q0 -27 24 -27q14 0 22 4q6 2 7 2q4 0 7 -7l21 -45q2 -4 2 -6q0 -6 -12 -11q-35 -16 -102 -16q-50 0 -75.5 25
t-25.5 64q0 32 20 68q-13 -1 -43 -1q-84 0 -149.5 28t-103.5 84t-38 137q0 127 72 194t207 67q132 0 200.5 -65.5t68.5 -181.5q0 -50 -44 -50zM391 297q0 38 -22 59t-66 21t-67 -21.5t-23 -58.5h178z" />
    <glyph glyph-name="uni1EBD" unicode="&#x1ebd;" horiz-adv-x="594" 
d="M368 541.5q-19 6.5 -47 20.5q-23 11 -39 17t-32 6q-18 0 -29.5 -7t-27.5 -25q-10 -12 -23 -12q-18 0 -52 27q-17 12 -24.5 22t-7.5 20q0 14 13 31q31 43 59 62.5t68 19.5q29 0 52.5 -8t50.5 -22q23 -11 35 -15.5t26 -4.5q17 0 28 7t28 27q11 13 23 13q17 0 52 -26
q17 -13 24.5 -23t7.5 -20q0 -15 -13 -32q-31 -45 -59.5 -64.5t-71.5 -19.5q-22 0 -41 6.5zM164.5 13q-65.5 28 -103.5 84t-38 137q0 127 72 194t207 67q132 0 200.5 -65.5t68.5 -181.5q0 -50 -44 -50h-314q0 -43 32.5 -66t98.5 -23q41 0 68.5 7.5t55.5 22.5q12 5 16 5
q9 0 15 -12l34 -64q5 -10 5 -15q0 -9 -12 -17q-41 -27 -93 -39t-119 -12q-84 0 -149.5 28zM391 297q0 38 -22 59t-66 21t-67 -21.5t-23 -58.5h178z" />
    <glyph glyph-name="f" unicode="f" horiz-adv-x="457" 
d="M96.5 12q-11.5 12 -11.5 38v292h-34q-28 0 -38 11.5t-10 38.5v38q0 27 10 38.5t38 11.5h34v15q0 96 52.5 148t157.5 52q107 0 167 -44q12 -9 12 -18q0 -7 -6 -16l-36 -61q-7 -11 -16 -11q-7 0 -14 4q-26 14 -57 14t-44.5 -15t-13.5 -45v-23h85q28 0 38 -11.5t10 -38.5
v-38q0 -27 -10 -38.5t-38 -11.5h-85v-292q0 -26 -12 -38t-41 -12h-97q-29 0 -40.5 12z" />
    <glyph glyph-name="g" unicode="g" horiz-adv-x="623" 
d="M183.5 -156.5q-62.5 13.5 -92.5 34.5q-7 6 -7 13q0 5 3 10l43 79q3 5 6.5 8.5t7.5 3.5q2 0 12 -4q47 -24 130 -24q47 0 71 20t24 65q-20 -14 -50 -22.5t-64 -8.5q-119 0 -181.5 59t-62.5 171q0 122 76 184.5t225 62.5q75 0 143 -21t113 -53v-319q0 -122 -70 -197
t-204 -75q-60 0 -122.5 13.5zM383 228v121q-21 9 -70 9q-44 0 -66.5 -22t-22.5 -79q0 -51 21 -74.5t66 -23.5q72 0 72 69z" />
    <glyph glyph-name="gbreve" unicode="&#x11f;" horiz-adv-x="623" 
d="M180.5 578q-48.5 48 -48.5 125q0 8 4.5 13t11.5 5h108q10 0 13.5 -4.5t3.5 -14.5q0 -49 48 -49t48 49q0 10 3.5 14.5t13.5 4.5h108q7 0 11.5 -5t4.5 -13q0 -77 -49 -125t-140 -48q-92 0 -140.5 48zM183.5 -156.5q-62.5 13.5 -92.5 34.5q-7 6 -7 13q0 5 3 10l43 79
q3 5 6.5 8.5t7.5 3.5q2 0 12 -4q47 -24 130 -24q47 0 71 20t24 65q-20 -14 -50 -22.5t-64 -8.5q-119 0 -181.5 59t-62.5 171q0 122 76 184.5t225 62.5q75 0 143 -21t113 -53v-319q0 -122 -70 -197t-204 -75q-60 0 -122.5 13.5zM383 228v121q-21 9 -70 9q-44 0 -66.5 -22
t-22.5 -79q0 -51 21 -74.5t66 -23.5q72 0 72 69z" />
    <glyph glyph-name="gcaron" unicode="&#x1e7;" horiz-adv-x="623" 
d="M240 540.5q-8 4.5 -22 21.5l-96 125q-12 17 -12 28q0 19 30 19h77q24 0 34.5 -5t20.5 -20l51 -77l50 77q10 15 20.5 20t34.5 5h77q30 0 30 -19q0 -11 -12 -28l-96 -125q-12 -17 -20.5 -21.5t-33.5 -4.5h-101q-24 0 -32 4.5zM183.5 -156.5q-62.5 13.5 -92.5 34.5
q-7 6 -7 13q0 5 3 10l43 79q3 5 6.5 8.5t7.5 3.5q2 0 12 -4q47 -24 130 -24q47 0 71 20t24 65q-20 -14 -50 -22.5t-64 -8.5q-119 0 -181.5 59t-62.5 171q0 122 76 184.5t225 62.5q75 0 143 -21t113 -53v-319q0 -122 -70 -197t-204 -75q-60 0 -122.5 13.5zM383 228v121
q-21 9 -70 9q-44 0 -66.5 -22t-22.5 -79q0 -51 21 -74.5t66 -23.5q72 0 72 69z" />
    <glyph glyph-name="gcircumflex" unicode="&#x11d;" horiz-adv-x="623" 
d="M117.5 541.5q-8.5 5.5 -8.5 14.5q0 12 12 27l96 125q14 17 22 22t32 5h101q24 0 32.5 -5t21.5 -22l96 -125q12 -15 12 -27q0 -9 -8 -14.5t-23 -5.5h-75q-24 0 -35 5.5t-21 20.5l-50 77l-51 -77q-9 -15 -20 -20.5t-35 -5.5h-75q-15 0 -23.5 5.5zM183.5 -156.5
q-62.5 13.5 -92.5 34.5q-7 6 -7 13q0 5 3 10l43 79q3 5 6.5 8.5t7.5 3.5q2 0 12 -4q47 -24 130 -24q47 0 71 20t24 65q-20 -14 -50 -22.5t-64 -8.5q-119 0 -181.5 59t-62.5 171q0 122 76 184.5t225 62.5q75 0 143 -21t113 -53v-319q0 -122 -70 -197t-204 -75
q-60 0 -122.5 13.5zM383 228v121q-21 9 -70 9q-44 0 -66.5 -22t-22.5 -79q0 -51 21 -74.5t66 -23.5q72 0 72 69z" />
    <glyph glyph-name="gcommaaccent" unicode="&#x123;" horiz-adv-x="623" 
d="M254 564q-9 5 -9 16q0 10 8 29l66 155q5 12 13.5 17.5t25.5 5.5h76q26 0 26 -20q0 -3 -2 -13l-45 -158q-7 -22 -17 -29.5t-33 -7.5h-80q-20 0 -29 5zM183.5 -156.5q-62.5 13.5 -92.5 34.5q-7 6 -7 13q0 5 3 10l43 79q3 5 6.5 8.5t7.5 3.5q2 0 12 -4q47 -24 130 -24
q47 0 71 20t24 65q-20 -14 -50 -22.5t-64 -8.5q-119 0 -181.5 59t-62.5 171q0 122 76 184.5t225 62.5q75 0 143 -21t113 -53v-319q0 -122 -70 -197t-204 -75q-60 0 -122.5 13.5zM383 228v121q-21 9 -70 9q-44 0 -66.5 -22t-22.5 -79q0 -51 21 -74.5t66 -23.5q72 0 72 69z
" />
    <glyph glyph-name="gdotaccent" unicode="&#x121;" horiz-adv-x="623" 
d="M267 564.5q-17 18.5 -17 45.5v25q0 27 17 45.5t44 18.5h27q27 0 44 -18.5t17 -45.5v-25q0 -27 -17 -45.5t-44 -18.5h-27q-27 0 -44 18.5zM183.5 -156.5q-62.5 13.5 -92.5 34.5q-7 6 -7 13q0 5 3 10l43 79q3 5 6.5 8.5t7.5 3.5q2 0 12 -4q47 -24 130 -24q47 0 71 20t24 65
q-20 -14 -50 -22.5t-64 -8.5q-119 0 -181.5 59t-62.5 171q0 122 76 184.5t225 62.5q75 0 143 -21t113 -53v-319q0 -122 -70 -197t-204 -75q-60 0 -122.5 13.5zM383 228v121q-21 9 -70 9q-44 0 -66.5 -22t-22.5 -79q0 -51 21 -74.5t66 -23.5q72 0 72 69z" />
    <glyph glyph-name="uni1E21" unicode="&#x1e21;" horiz-adv-x="623" 
d="M138.5 574.5q-10.5 11.5 -10.5 38.5v46q0 27 10.5 38.5t38.5 11.5h269q28 0 38 -11.5t10 -38.5v-46q0 -27 -10 -38.5t-38 -11.5h-269q-28 0 -38.5 11.5zM183.5 -156.5q-62.5 13.5 -92.5 34.5q-7 6 -7 13q0 5 3 10l43 79q3 5 6.5 8.5t7.5 3.5q2 0 12 -4q47 -24 130 -24
q47 0 71 20t24 65q-20 -14 -50 -22.5t-64 -8.5q-119 0 -181.5 59t-62.5 171q0 122 76 184.5t225 62.5q75 0 143 -21t113 -53v-319q0 -122 -70 -197t-204 -75q-60 0 -122.5 13.5zM383 228v121q-21 9 -70 9q-44 0 -66.5 -22t-22.5 -79q0 -51 21 -74.5t66 -23.5q72 0 72 69z
" />
    <glyph glyph-name="h" unicode="h" horiz-adv-x="605" 
d="M55 12q-12 12 -12 38v599q0 18 6.5 24.5t27.5 6.5h107q21 0 27.5 -6.5t6.5 -24.5v-210q30 26 72.5 41t95.5 15q81 0 131 -45.5t50 -134.5v-265q0 -26 -11.5 -38t-40.5 -12h-97q-29 0 -41.5 12t-12.5 38v252q0 30 -12.5 43t-39.5 13q-30 0 -48.5 -16t-18.5 -44v-248
q0 -26 -11.5 -38t-40.5 -12h-97q-29 0 -41 12z" />
    <glyph glyph-name="hbar" unicode="&#x127;" horiz-adv-x="663" 
d="M575 449.5q50 -45.5 50 -134.5v-265q0 -26 -12 -38t-41 -12h-96q-29 0 -41.5 12t-12.5 38v252q0 30 -12.5 43t-39.5 13q-30 0 -48.5 -16t-18.5 -44v-248q0 -26 -11.5 -38t-40.5 -12h-97q-29 0 -41.5 12t-12.5 38v458h-49q-29 0 -38.5 8t-9.5 34v38q0 26 9.5 34t38.5 8h49
v19q0 18 7 24.5t28 6.5h100q21 0 27.5 -6.5t6.5 -24.5v-19h27q29 0 39 -8.5t10 -33.5v-38q0 -25 -10 -33.5t-39 -8.5h-27v-75q30 28 75 45t100 17q81 0 131 -45.5z" />
    <glyph glyph-name="uni1E2B" unicode="&#x1e2b;" horiz-adv-x="605" 
d="M55 12q-12 12 -12 38v599q0 18 6.5 24.5t27.5 6.5h107q21 0 27.5 -6.5t6.5 -24.5v-210q30 26 72.5 41t95.5 15q81 0 131 -45.5t50 -134.5v-265q0 -26 -11.5 -38t-40.5 -12h-97q-29 0 -41.5 12t-12.5 38v252q0 30 -12.5 43t-39.5 13q-30 0 -48.5 -16t-18.5 -44v-248
q0 -26 -11.5 -38t-40.5 -12h-97q-29 0 -41 12zM185.5 -180q-48.5 48 -48.5 125q0 8 4.5 13t11.5 5h108q10 0 13.5 -4.5t3.5 -14.5q0 -49 48 -49t48 49q0 10 3.5 14.5t13.5 4.5h108q7 0 11.5 -5t4.5 -13q0 -77 -49 -125t-140 -48q-92 0 -140.5 48z" />
    <glyph glyph-name="hcircumflex" unicode="&#x125;" horiz-adv-x="605" 
d="M60.5 723.5q-8.5 5.5 -8.5 14.5q0 12 12 27l96 125q14 17 22 22t32 5h101q24 0 32.5 -5t21.5 -22l96 -125q12 -15 12 -27q0 -9 -8 -14.5t-23 -5.5h-75q-24 0 -35 5.5t-21 20.5l-50 77l-51 -77q-9 -15 -20 -20.5t-35 -5.5h-75q-15 0 -23.5 5.5zM55 12q-12 12 -12 38v599
q0 18 6.5 24.5t27.5 6.5h107q21 0 27.5 -6.5t6.5 -24.5v-210q30 26 72.5 41t95.5 15q81 0 131 -45.5t50 -134.5v-265q0 -26 -11.5 -38t-40.5 -12h-97q-29 0 -41.5 12t-12.5 38v252q0 30 -12.5 43t-39.5 13q-30 0 -48.5 -16t-18.5 -44v-248q0 -26 -11.5 -38t-40.5 -12h-97
q-29 0 -41 12z" />
    <glyph glyph-name="uni1E25" unicode="&#x1e25;" horiz-adv-x="605" 
d="M55 12q-12 12 -12 38v599q0 18 6.5 24.5t27.5 6.5h107q21 0 27.5 -6.5t6.5 -24.5v-210q30 26 72.5 41t95.5 15q81 0 131 -45.5t50 -134.5v-265q0 -26 -11.5 -38t-40.5 -12h-97q-29 0 -41.5 12t-12.5 38v252q0 30 -12.5 43t-39.5 13q-30 0 -48.5 -16t-18.5 -44v-248
q0 -26 -11.5 -38t-40.5 -12h-97q-29 0 -41 12zM256.5 -187.5q-17.5 18.5 -17.5 45.5v25q0 27 17.5 45.5t43.5 18.5h27q27 0 44 -18.5t17 -45.5v-25q0 -27 -17 -45.5t-44 -18.5h-27q-26 0 -43.5 18.5z" />
    <glyph glyph-name="i" unicode="i" horiz-adv-x="299" 
d="M61 549.5q-18 18.5 -18 43.5v24q0 26 18 44.5t52 18.5h72q35 0 53 -18.5t18 -44.5v-24q0 -25 -18 -43.5t-53 -18.5h-72q-34 0 -52 18.5zM60 12q-12 12 -12 38v379q0 26 12 38.5t41 12.5h96q29 0 41.5 -12.5t12.5 -38.5v-379q0 -26 -12.5 -38t-41.5 -12h-96q-29 0 -41 12z
" />
    <glyph glyph-name="dotlessi" unicode="&#x131;" horiz-adv-x="288" 
d="M54.5 12q-11.5 12 -11.5 38v379q0 26 12 38.5t40 12.5h97q29 0 41 -12.5t12 -38.5v-379q0 -26 -12 -38t-41 -12h-97q-29 0 -40.5 12z" />
    <glyph glyph-name="iacute" unicode="&#xed;" horiz-adv-x="302" 
d="M48 566q0 8 3 15l44 121q7 20 16.5 27t35.5 7h120q18 0 28.5 -6.5t10.5 -18.5q0 -11 -7 -22l-65 -115q-12 -20 -23 -26.5t-40 -6.5h-89q-34 0 -34 25zM61.5 12q-11.5 12 -11.5 38v379q0 26 12 38.5t40 12.5h97q29 0 41 -12.5t12 -38.5v-379q0 -26 -12 -38t-41 -12h-97
q-29 0 -40.5 12z" />
    <glyph glyph-name="ibreve" unicode="&#x12d;" horiz-adv-x="303" 
d="M11.5 602q-48.5 48 -48.5 125q0 8 4.5 13t11.5 5h108q10 0 13.5 -4.5t3.5 -14.5q0 -49 48 -49t48 49q0 10 3.5 14.5t13.5 4.5h108q7 0 11.5 -5t4.5 -13q0 -77 -49 -125t-140 -48q-92 0 -140.5 48zM62 12q-12 12 -12 38v379q0 26 12 38.5t41 12.5h97q29 0 41 -12.5
t12 -38.5v-379q0 -26 -12 -38t-41 -12h-97q-29 0 -41 12z" />
    <glyph glyph-name="uni01D0" unicode="&#x1d0;" horiz-adv-x="302" 
d="M67.5 572.5q-8.5 4.5 -20.5 21.5l-96 125q-12 15 -12 27q0 20 31 20h75q25 0 36 -5.5t20 -20.5l50 -76l51 76q9 15 20 20.5t35 5.5h75q15 0 23.5 -5.5t8.5 -14.5q0 -12 -12 -27l-96 -125q-14 -17 -22 -21.5t-32 -4.5h-101q-25 0 -33.5 4.5zM61.5 12q-11.5 12 -11.5 38
v379q0 26 12 38.5t40 12.5h97q29 0 41 -12.5t12 -38.5v-379q0 -26 -12 -38t-41 -12h-97q-29 0 -40.5 12z" />
    <glyph glyph-name="icircumflex" unicode="&#xee;" horiz-adv-x="302" 
d="M-52.5 535.5q-8.5 5.5 -8.5 14.5q0 12 12 27l96 125q14 17 22 22t32 5h101q24 0 32.5 -5t21.5 -22l96 -125q12 -15 12 -27q0 -9 -8 -14.5t-23 -5.5h-75q-24 0 -35 5.5t-21 20.5l-50 77l-51 -77q-9 -15 -20 -20.5t-35 -5.5h-75q-15 0 -23.5 5.5zM61.5 12
q-11.5 12 -11.5 38v379q0 26 12 38.5t40 12.5h97q29 0 41 -12.5t12 -38.5v-379q0 -26 -12 -38t-41 -12h-97q-29 0 -40.5 12z" />
    <glyph glyph-name="idieresis" unicode="&#xef;" horiz-adv-x="302" 
d="M-8 543.5q-17 18.5 -17 45.5v25q0 27 17 45.5t44 18.5h27q27 0 44 -18.5t17 -45.5v-25q0 -27 -17 -45.5t-44 -18.5h-27q-27 0 -44 18.5zM206.5 543.5q-17.5 18.5 -17.5 45.5v25q0 27 17.5 45.5t43.5 18.5h27q27 0 44 -18.5t17 -45.5v-25q0 -27 -17 -45.5t-44 -18.5h-27
q-26 0 -43.5 18.5zM61.5 12q-11.5 12 -11.5 38v379q0 26 12 38.5t40 12.5h97q29 0 41 -12.5t12 -38.5v-379q0 -26 -12 -38t-41 -12h-97q-29 0 -40.5 12z" />
    <glyph glyph-name="uni1ECB" unicode="&#x1ecb;" horiz-adv-x="313" 
d="M68 549.5q-18 18.5 -18 43.5v24q0 26 18 44.5t52 18.5h72q35 0 53 -18.5t18 -44.5v-24q0 -25 -18 -43.5t-53 -18.5h-72q-34 0 -52 18.5zM67 12q-12 12 -12 38v379q0 26 12 38.5t41 12.5h96q29 0 41.5 -12.5t12.5 -38.5v-379q0 -26 -12.5 -38t-41.5 -12h-96q-29 0 -41 12z
M105.5 -187.5q-17.5 18.5 -17.5 45.5v25q0 27 17.5 45.5t43.5 18.5h27q27 0 44 -18.5t17 -45.5v-25q0 -27 -17 -45.5t-44 -18.5h-27q-26 0 -43.5 18.5z" />
    <glyph glyph-name="igrave" unicode="&#xec;" horiz-adv-x="288" 
d="M67 541.5q-11 6.5 -23 26.5l-65 115q-7 11 -7 22q0 12 10.5 18.5t28.5 6.5h120q26 0 35.5 -7t16.5 -27l44 -121q3 -9 3 -16q0 -11 -8.5 -17.5t-25.5 -6.5h-89q-29 0 -40 6.5zM54.5 12q-11.5 12 -11.5 38v379q0 26 12 38.5t40 12.5h97q29 0 41 -12.5t12 -38.5v-379
q0 -26 -12 -38t-41 -12h-97q-29 0 -40.5 12z" />
    <glyph glyph-name="uni1EC9" unicode="&#x1ec9;" horiz-adv-x="288" 
d="M89 555v52q0 17 7.5 24t28.5 7q26 0 37.5 5.5t11.5 20.5q0 22 -36 22q-29 0 -67 -18q-8 -3 -12 3l-27 63q-2 4 -2 6q0 5 6 8q21 14 56.5 22.5t68.5 8.5q71 0 106.5 -27.5t35.5 -79.5q0 -46 -26.5 -73.5t-65.5 -27.5v-16q0 -23 -23 -23h-76q-23 0 -23 23zM54.5 12
q-11.5 12 -11.5 38v379q0 26 12 38.5t40 12.5h97q29 0 41 -12.5t12 -38.5v-379q0 -26 -12 -38t-41 -12h-97q-29 0 -40.5 12z" />
    <glyph glyph-name="ij" unicode="&#x133;" horiz-adv-x="571" 
d="M53 549.5q-18 18.5 -18 43.5v24q0 26 18 44.5t52 18.5h72q35 0 53 -18.5t18 -44.5v-24q0 -25 -18 -43.5t-53 -18.5h-72q-34 0 -52 18.5zM332.5 549.5q-18.5 18.5 -18.5 43.5v24q0 26 18.5 44.5t51.5 18.5h73q34 0 52.5 -18.5t18.5 -44.5v-24q0 -25 -18.5 -43.5
t-52.5 -18.5h-73q-33 0 -51.5 18.5zM52 12q-12 12 -12 38v379q0 26 12 38.5t41 12.5h96q29 0 41.5 -12.5t12.5 -38.5v-379q0 -26 -12.5 -38t-41.5 -12h-96q-29 0 -41 12zM79 -159q-10 7 -10 18q0 7 7 21l42 74q9 13 19 13q9 0 17 -7q49 -35 93 -35q39 0 56 18.5t17 55.5v430
q0 26 12 38.5t41 12.5h97q29 0 41 -12.5t12 -38.5v-433q0 -99 -59.5 -156.5t-174.5 -57.5q-130 0 -210 59z" />
    <glyph glyph-name="imacron" unicode="&#x12b;" horiz-adv-x="302" 
d="M-21.5 574.5q-10.5 11.5 -10.5 38.5v46q0 27 10.5 38.5t38.5 11.5h269q28 0 38 -11.5t10 -38.5v-46q0 -27 -10 -38.5t-38 -11.5h-269q-28 0 -38.5 11.5zM61.5 12q-11.5 12 -11.5 38v379q0 26 12 38.5t40 12.5h97q29 0 41 -12.5t12 -38.5v-379q0 -26 -12 -38t-41 -12h-97
q-29 0 -40.5 12z" />
    <glyph glyph-name="iogonek" unicode="&#x12f;" horiz-adv-x="299" 
d="M238 661.5q18 -18.5 18 -44.5v-24q0 -25 -18 -43.5t-53 -18.5h-72q-34 0 -52 18.5t-18 43.5v24q0 26 18 44.5t52 18.5h72q35 0 53 -18.5zM238.5 467.5q12.5 -12.5 12.5 -38.5v-379q0 -22 -8 -33.5t-27 -14.5q1 -1 1 -4t-3 -7q-38 -47 -49.5 -65t-11.5 -38q0 -27 24 -27
q14 0 22 4q6 2 7 2q4 0 7 -7l21 -45q2 -4 2 -6q0 -6 -12 -11q-35 -16 -102 -16q-50 0 -75.5 25t-25.5 64q0 28 14.5 57t46.5 66l6 7q-22 2 -31 14t-9 35v379q0 26 12 38.5t41 12.5h96q29 0 41.5 -12.5z" />
    <glyph glyph-name="itilde" unicode="&#x129;" horiz-adv-x="302" 
d="M199 549.5q-19 6.5 -47 20.5q-23 11 -39 17t-32 6q-18 0 -29.5 -7t-27.5 -25q-10 -12 -23 -12q-18 0 -52 27q-17 12 -24.5 22t-7.5 20q0 14 13 31q31 43 59 62.5t68 19.5q29 0 52.5 -8t50.5 -22q23 -11 35 -15.5t26 -4.5q17 0 28 7t28 27q11 13 23 13q17 0 52 -26
q17 -13 24.5 -23t7.5 -20q0 -15 -13 -32q-31 -45 -59.5 -64.5t-71.5 -19.5q-22 0 -41 6.5zM61.5 12q-11.5 12 -11.5 38v379q0 26 12 38.5t40 12.5h97q29 0 41 -12.5t12 -38.5v-379q0 -26 -12 -38t-41 -12h-97q-29 0 -40.5 12z" />
    <glyph glyph-name="j" unicode="j" horiz-adv-x="362" 
d="M123.5 549.5q-18.5 18.5 -18.5 43.5v24q0 26 18.5 44.5t51.5 18.5h73q34 0 52.5 -18.5t18.5 -44.5v-24q0 -25 -18.5 -43.5t-52.5 -18.5h-73q-33 0 -51.5 18.5zM-130 -111q-11 8 -11 18q0 7 7 21l43 74q7 14 17 14q8 0 19 -8q24 -17 45.5 -26t47.5 -9q39 0 56 18.5
t17 55.5v382q0 26 12 38.5t41 12.5h97q29 0 41 -12.5t12 -38.5v-385q0 -99 -59.5 -156.5t-174.5 -57.5q-130 0 -210 59z" />
    <glyph glyph-name="uni0237" unicode="&#x237;" horiz-adv-x="356" 
d="M-131 -111q-11 8 -11 18q0 7 7 21l43 74q7 14 17 14q8 0 19 -8q49 -35 93 -35q39 0 56 18.5t17 55.5v382q0 26 12 38.5t41 12.5h97q29 0 41 -12.5t12 -38.5v-385q0 -99 -59.5 -156.5t-174.5 -57.5q-130 0 -210 59z" />
    <glyph glyph-name="jcircumflex" unicode="&#x135;" horiz-adv-x="420" 
d="M10.5 557.5q-8.5 5.5 -8.5 14.5q0 12 12 27l96 125q14 17 22 22t32 5h101q24 0 32.5 -5t21.5 -22l96 -125q12 -15 12 -27q0 -9 -8 -14.5t-23 -5.5h-75q-24 0 -35 5.5t-21 20.5l-50 77l-51 -77q-9 -15 -20 -20.5t-35 -5.5h-75q-15 0 -23.5 5.5zM-131 -111q-11 8 -11 18
q0 7 7 21l43 74q7 14 17 14q8 0 19 -8q49 -35 93 -35q39 0 56 18.5t17 55.5v382q0 26 12 38.5t41 12.5h97q29 0 41 -12.5t12 -38.5v-385q0 -99 -59.5 -156.5t-174.5 -57.5q-130 0 -210 59z" />
    <glyph glyph-name="k" unicode="k" horiz-adv-x="596" 
d="M592 20q0 -9 -6 -14.5t-16 -5.5h-155q-14 0 -20.5 2.5t-13.5 10.5l-136 185v-148q0 -26 -12 -38t-41 -12h-97q-29 0 -40.5 12t-11.5 38v579q0 26 12 38.5t40 12.5h97q29 0 41 -12.5t12 -38.5v-335l132 172q6 8 13 11t21 3h155q10 0 15.5 -5.5t5.5 -14.5q0 -10 -7 -18
l-171 -196l176 -208q7 -8 7 -18z" />
    <glyph glyph-name="kcommaaccent" unicode="&#x137;" horiz-adv-x="596" 
d="M592 20q0 -9 -6 -14.5t-16 -5.5h-155q-14 0 -20.5 2.5t-13.5 10.5l-136 185v-148q0 -26 -12 -38t-41 -12h-97q-29 0 -40.5 12t-11.5 38v579q0 26 12 38.5t40 12.5h97q29 0 41 -12.5t12 -38.5v-335l132 172q6 8 13 11t21 3h155q10 0 15.5 -5.5t5.5 -14.5q0 -10 -7 -18
l-171 -196l176 -208q7 -8 7 -18zM392 -41q9 -5 9 -16q0 -10 -8 -29l-66 -155q-5 -12 -13.5 -17.5t-25.5 -5.5h-76q-26 0 -26 20q0 3 2 13l45 158q7 22 17 29.5t33 7.5h80q20 0 29 -5z" />
    <glyph glyph-name="kgreenlandic" unicode="&#x138;" horiz-adv-x="596" 
d="M592 20q0 -9 -6 -14.5t-16 -5.5h-155q-14 0 -20.5 2.5t-13.5 10.5l-136 185v-148q0 -28 -14 -39t-51 -11h-85q-30 0 -41 14t-11 43v372q0 29 14 40t50 11h85q29 0 41 -12.5t12 -38.5v-135l132 172q6 8 13 11t21 3h155q10 0 15.5 -5.5t5.5 -14.5q0 -10 -7 -18l-171 -196
l176 -208q7 -8 7 -18z" />
    <glyph glyph-name="l" unicode="l" horiz-adv-x="288" 
d="M54.5 12q-11.5 12 -11.5 38v579q0 26 12 38.5t40 12.5h97q29 0 41 -12.5t12 -38.5v-579q0 -26 -12 -38t-41 -12h-97q-29 0 -40.5 12z" />
    <glyph glyph-name="lacute" unicode="&#x13a;" horiz-adv-x="288" 
d="M56 774q0 8 3 15l44 121q7 20 16.5 27t35.5 7h120q18 0 28.5 -6.5t10.5 -18.5q0 -11 -7 -22l-65 -115q-12 -20 -23 -26.5t-40 -6.5h-89q-34 0 -34 25zM54.5 12q-11.5 12 -11.5 38v579q0 26 12 38.5t40 12.5h97q29 0 41 -12.5t12 -38.5v-579q0 -26 -12 -38t-41 -12h-97
q-29 0 -40.5 12z" />
    <glyph glyph-name="lcaron" unicode="&#x13e;" horiz-adv-x="520" 
d="M311 565q0 3 2 13l45 158q7 22 17 29.5t33 7.5h80q20 0 29 -5t9 -16q0 -10 -8 -29l-66 -155q-5 -12 -13.5 -17.5t-25.5 -5.5h-76q-26 0 -26 20zM54.5 12q-11.5 12 -11.5 38v579q0 26 12 38.5t40 12.5h97q29 0 41 -12.5t12 -38.5v-579q0 -26 -12 -38t-41 -12h-97
q-29 0 -40.5 12z" />
    <glyph glyph-name="lcommaaccent" unicode="&#x13c;" horiz-adv-x="295" 
d="M61.5 12q-11.5 12 -11.5 38v579q0 26 12 38.5t40 12.5h97q29 0 41 -12.5t12 -38.5v-579q0 -26 -12 -38t-41 -12h-97q-29 0 -40.5 12zM8 -244q0 3 2 13l45 158q7 22 17 29.5t33 7.5h80q20 0 29 -5t9 -16q0 -10 -8 -29l-66 -155q-5 -12 -13.5 -17.5t-25.5 -5.5h-76
q-26 0 -26 20z" />
    <glyph glyph-name="ldot" unicode="&#x140;" horiz-adv-x="435" 
d="M54.5 12q-11.5 12 -11.5 38v579q0 26 12 38.5t40 12.5h97q29 0 41 -12.5t12 -38.5v-579q0 -26 -12 -38t-41 -12h-97q-29 0 -40.5 12zM311 275.5q-17 18.5 -17 45.5v25q0 27 17 45.5t44 18.5h26q27 0 44 -18.5t17 -45.5v-25q0 -27 -17 -45.5t-44 -18.5h-26q-27 0 -44 18.5
z" />
    <glyph glyph-name="uni1E37" unicode="&#x1e37;" horiz-adv-x="288" 
d="M54.5 12q-11.5 12 -11.5 38v579q0 26 12 38.5t40 12.5h97q29 0 41 -12.5t12 -38.5v-579q0 -26 -12 -38t-41 -12h-97q-29 0 -40.5 12zM94.5 -187.5q-17.5 18.5 -17.5 45.5v25q0 27 17.5 45.5t43.5 18.5h27q27 0 44 -18.5t17 -45.5v-25q0 -27 -17 -45.5t-44 -18.5h-27
q-26 0 -43.5 18.5z" />
    <glyph glyph-name="uni1E39" unicode="&#x1e39;" horiz-adv-x="302" 
d="M-21.5 752.5q-10.5 11.5 -10.5 38.5v46q0 27 10.5 38.5t38.5 11.5h269q28 0 38 -11.5t10 -38.5v-46q0 -27 -10 -38.5t-38 -11.5h-269q-28 0 -38.5 11.5zM61.5 12q-11.5 12 -11.5 38v579q0 26 12 38.5t40 12.5h97q29 0 41 -12.5t12 -38.5v-579q0 -26 -12 -38t-41 -12h-97
q-29 0 -40.5 12zM100.5 -187.5q-17.5 18.5 -17.5 45.5v25q0 27 17.5 45.5t43.5 18.5h27q27 0 44 -18.5t17 -45.5v-25q0 -27 -17 -45.5t-44 -18.5h-27q-26 0 -43.5 18.5z" />
    <glyph glyph-name="uni1E3B" unicode="&#x1e3b;" horiz-adv-x="302" 
d="M61.5 12q-11.5 12 -11.5 38v579q0 26 12 38.5t40 12.5h97q29 0 41 -12.5t12 -38.5v-579q0 -26 -12 -38t-41 -12h-97q-29 0 -40.5 12zM-9 -175.5q-10 11.5 -10 37.5v31q0 26 10 38t38 12h243q28 0 38.5 -12t10.5 -38v-31q0 -26 -10.5 -37.5t-38.5 -11.5h-243
q-28 0 -38 11.5z" />
    <glyph glyph-name="lslash" unicode="&#x142;" horiz-adv-x="418" 
d="M425 395q0 -9 -14 -17l-105 -60v-268q0 -26 -12 -38t-41 -12h-97q-29 0 -41 12t-12 38v152l-27 -15q-10 -5 -14 -5q-9 0 -16 11l-48 78q-5 8 -5 14q0 10 13 16l97 55v273q0 26 12 38.5t41 12.5h97q29 0 41 -12.5t12 -38.5v-157l35 20q8 5 13 5q8 0 17 -13l50 -78
q4 -5 4 -11z" />
    <glyph glyph-name="m" unicode="m" horiz-adv-x="820" 
d="M55 12q-12 12 -12 38v399q0 18 6.5 24.5t27.5 6.5h95q12 0 18.5 -3.5t7.5 -12.5l5 -31q28 29 63 45.5t82 16.5q42 0 72 -15t51 -46q27 29 62.5 45t85.5 16q77 0 120 -44.5t43 -134.5v-266q0 -26 -12 -38t-41 -12h-81q-29 0 -41 12t-12 38v253q0 29 -10.5 42t-31.5 13
q-24 0 -37.5 -15.5t-13.5 -43.5v-249q0 -26 -12 -38t-41 -12h-73q-29 0 -41 12t-12 38v255q0 53 -41 53q-25 0 -39 -16t-14 -44v-248q0 -26 -11.5 -38t-40.5 -12h-81q-29 0 -41 12z" />
    <glyph glyph-name="uni1E43" unicode="&#x1e43;" horiz-adv-x="820" 
d="M55 12q-12 12 -12 38v399q0 18 6.5 24.5t27.5 6.5h95q12 0 18.5 -3.5t7.5 -12.5l5 -31q28 29 63 45.5t82 16.5q42 0 72 -15t51 -46q27 29 62.5 45t85.5 16q77 0 120 -44.5t43 -134.5v-266q0 -26 -12 -38t-41 -12h-81q-29 0 -41 12t-12 38v253q0 29 -10.5 42t-31.5 13
q-24 0 -37.5 -15.5t-13.5 -43.5v-249q0 -26 -12 -38t-41 -12h-73q-29 0 -41 12t-12 38v255q0 53 -41 53q-25 0 -39 -16t-14 -44v-248q0 -26 -11.5 -38t-40.5 -12h-81q-29 0 -41 12zM362.5 -187.5q-17.5 18.5 -17.5 45.5v25q0 27 17.5 45.5t43.5 18.5h27q27 0 44 -18.5
t17 -45.5v-25q0 -27 -17 -45.5t-44 -18.5h-27q-26 0 -43.5 18.5z" />
    <glyph glyph-name="n" unicode="n" horiz-adv-x="605" 
d="M55 12q-12 12 -12 38v399q0 18 6.5 24.5t27.5 6.5h103q12 0 18.5 -3.5t7.5 -12.5l5 -30q28 28 73.5 44.5t101.5 16.5q81 0 131 -45.5t50 -134.5v-265q0 -26 -11.5 -38t-40.5 -12h-97q-29 0 -41.5 12t-12.5 38v252q0 30 -13 43t-41 13q-30 0 -47.5 -16t-17.5 -44v-248
q0 -26 -11.5 -38t-40.5 -12h-97q-29 0 -41 12z" />
    <glyph glyph-name="nacute" unicode="&#x144;" horiz-adv-x="605" 
d="M228 576q0 8 3 15l44 121q7 20 16.5 27t35.5 7h120q18 0 28.5 -6.5t10.5 -18.5q0 -11 -7 -22l-65 -115q-12 -20 -23 -26.5t-40 -6.5h-89q-34 0 -34 25zM55 12q-12 12 -12 38v399q0 18 6.5 24.5t27.5 6.5h103q12 0 18.5 -3.5t7.5 -12.5l5 -30q28 28 73.5 44.5t101.5 16.5
q81 0 131 -45.5t50 -134.5v-265q0 -26 -11.5 -38t-40.5 -12h-97q-29 0 -41.5 12t-12.5 38v252q0 30 -13 43t-41 13q-30 0 -47.5 -16t-17.5 -44v-248q0 -26 -11.5 -38t-40.5 -12h-97q-29 0 -41 12z" />
    <glyph glyph-name="napostrophe" unicode="&#x149;" horiz-adv-x="702" 
d="M-9 519q0 3 2 13l45 158q7 22 17 29.5t33 7.5h80q20 0 29 -5t9 -16q0 -10 -8 -29l-66 -155q-5 -12 -13.5 -17.5t-25.5 -5.5h-76q-26 0 -26 20zM152 12q-12 12 -12 38v399q0 18 6.5 24.5t27.5 6.5h103q12 0 18.5 -3.5t7.5 -12.5l5 -30q28 28 73.5 44.5t101.5 16.5
q81 0 131 -45.5t50 -134.5v-265q0 -26 -11.5 -38t-40.5 -12h-97q-29 0 -41.5 12t-12.5 38v252q0 30 -13 43t-41 13q-30 0 -47.5 -16t-17.5 -44v-248q0 -26 -11.5 -38t-40.5 -12h-97q-29 0 -41 12z" />
    <glyph glyph-name="ncaron" unicode="&#x148;" horiz-adv-x="605" 
d="M238 540.5q-8 4.5 -22 21.5l-96 125q-12 17 -12 28q0 19 30 19h77q24 0 34.5 -5t20.5 -20l51 -77l50 77q10 15 20.5 20t34.5 5h77q30 0 30 -19q0 -11 -12 -28l-96 -125q-12 -17 -20.5 -21.5t-33.5 -4.5h-101q-24 0 -32 4.5zM55 12q-12 12 -12 38v399q0 18 6.5 24.5
t27.5 6.5h103q12 0 18.5 -3.5t7.5 -12.5l5 -30q28 28 73.5 44.5t101.5 16.5q81 0 131 -45.5t50 -134.5v-265q0 -26 -11.5 -38t-40.5 -12h-97q-29 0 -41.5 12t-12.5 38v252q0 30 -13 43t-41 13q-30 0 -47.5 -16t-17.5 -44v-248q0 -26 -11.5 -38t-40.5 -12h-97q-29 0 -41 12z
" />
    <glyph glyph-name="ncommaaccent" unicode="&#x146;" horiz-adv-x="605" 
d="M55 12q-12 12 -12 38v399q0 18 6.5 24.5t27.5 6.5h103q12 0 18.5 -3.5t7.5 -12.5l5 -30q28 28 73.5 44.5t101.5 16.5q81 0 131 -45.5t50 -134.5v-265q0 -26 -11.5 -38t-40.5 -12h-97q-29 0 -41.5 12t-12.5 38v252q0 30 -13 43t-41 13q-30 0 -47.5 -16t-17.5 -44v-248
q0 -26 -11.5 -38t-40.5 -12h-97q-29 0 -41 12zM212 -244q0 3 2 13l45 158q7 22 17 29.5t33 7.5h80q20 0 29 -5t9 -16q0 -10 -8 -29l-66 -155q-5 -12 -13.5 -17.5t-25.5 -5.5h-76q-26 0 -26 20z" />
    <glyph glyph-name="uni1E45" unicode="&#x1e45;" horiz-adv-x="605" 
d="M255 579.5q-17 18.5 -17 45.5v25q0 27 17 45.5t44 18.5h27q27 0 44 -18.5t17 -45.5v-25q0 -27 -17 -45.5t-44 -18.5h-27q-27 0 -44 18.5zM55 12q-12 12 -12 38v399q0 18 6.5 24.5t27.5 6.5h103q12 0 18.5 -3.5t7.5 -12.5l5 -30q28 28 73.5 44.5t101.5 16.5
q81 0 131 -45.5t50 -134.5v-265q0 -26 -11.5 -38t-40.5 -12h-97q-29 0 -41.5 12t-12.5 38v252q0 30 -13 43t-41 13q-30 0 -47.5 -16t-17.5 -44v-248q0 -26 -11.5 -38t-40.5 -12h-97q-29 0 -41 12z" />
    <glyph glyph-name="uni1E47" unicode="&#x1e47;" horiz-adv-x="605" 
d="M55 12q-12 12 -12 38v399q0 18 6.5 24.5t27.5 6.5h103q12 0 18.5 -3.5t7.5 -12.5l5 -30q28 28 73.5 44.5t101.5 16.5q81 0 131 -45.5t50 -134.5v-265q0 -26 -11.5 -38t-40.5 -12h-97q-29 0 -41.5 12t-12.5 38v252q0 30 -13 43t-41 13q-30 0 -47.5 -16t-17.5 -44v-248
q0 -26 -11.5 -38t-40.5 -12h-97q-29 0 -41 12zM249.5 -187.5q-17.5 18.5 -17.5 45.5v25q0 27 17.5 45.5t43.5 18.5h27q27 0 44 -18.5t17 -45.5v-25q0 -27 -17 -45.5t-44 -18.5h-27q-26 0 -43.5 18.5z" />
    <glyph glyph-name="eng" unicode="&#x14b;" horiz-adv-x="605" 
d="M123 -202q-10 7 -10 17q0 8 7 22l42 73q8 14 18 14q8 0 18 -8q47 -34 93 -34q39 0 56 18.5t17 54.5v349q0 54 -52 54q-30 0 -48.5 -16t-18.5 -44v-248q0 -26 -11.5 -38t-40.5 -12h-97q-29 0 -41 12t-12 38v399q0 18 6.5 24.5t27.5 6.5h103q11 0 17.5 -3.5t8.5 -12.5
l5 -30q29 27 74.5 44t100.5 17q81 0 131 -45.5t50 -134.5v-362q0 -100 -59.5 -157.5t-174.5 -57.5q-128 0 -210 60z" />
    <glyph glyph-name="uni1E49" unicode="&#x1e49;" horiz-adv-x="605" 
d="M55 12q-12 12 -12 38v399q0 18 6.5 24.5t27.5 6.5h103q12 0 18.5 -3.5t7.5 -12.5l5 -30q28 28 73.5 44.5t101.5 16.5q81 0 131 -45.5t50 -134.5v-265q0 -26 -11.5 -38t-40.5 -12h-97q-29 0 -41.5 12t-12.5 38v252q0 30 -13 43t-41 13q-30 0 -47.5 -16t-17.5 -44v-248
q0 -26 -11.5 -38t-40.5 -12h-97q-29 0 -41 12zM147 -175.5q-10 11.5 -10 37.5v31q0 26 10 38t38 12h243q28 0 38.5 -12t10.5 -38v-31q0 -26 -10.5 -37.5t-38.5 -11.5h-243q-28 0 -38 11.5z" />
    <glyph glyph-name="ntilde" unicode="&#xf1;" horiz-adv-x="605" 
d="M349 557.5q-19 6.5 -47 20.5q-23 11 -39 17t-32 6q-18 0 -29.5 -7t-27.5 -25q-10 -12 -23 -12q-17 0 -52 27q-17 12 -24.5 22t-7.5 20q0 14 13 31q31 43 59 62.5t68 19.5q29 0 52.5 -8t50.5 -22q23 -11 35 -15.5t26 -4.5q17 0 28 7t28 27q11 13 23 13q17 0 52 -26
q17 -13 24.5 -23t7.5 -20q0 -15 -13 -32q-31 -45 -59.5 -64.5t-71.5 -19.5q-22 0 -41 6.5zM55 12q-12 12 -12 38v399q0 18 6.5 24.5t27.5 6.5h103q12 0 18.5 -3.5t7.5 -12.5l5 -30q28 28 73.5 44.5t101.5 16.5q81 0 131 -45.5t50 -134.5v-265q0 -26 -11.5 -38t-40.5 -12h-97
q-29 0 -41.5 12t-12.5 38v252q0 30 -13 43t-41 13q-30 0 -47.5 -16t-17.5 -44v-248q0 -26 -11.5 -38t-40.5 -12h-97q-29 0 -41 12z" />
    <glyph glyph-name="o" unicode="o" horiz-adv-x="625" 
d="M99 53.5q-76 68.5 -76 186.5t76 186.5t213 68.5t213.5 -68.5t76.5 -186.5t-76.5 -186.5t-213.5 -68.5t-213 68.5zM400 240q0 110 -88 110t-88 -110q0 -56 23 -84t65 -28q88 0 88 112z" />
    <glyph glyph-name="oacute" unicode="&#xf3;" horiz-adv-x="625" 
d="M206 560q0 8 3 15l44 121q7 20 16.5 27t35.5 7h120q18 0 28.5 -6.5t10.5 -18.5q0 -11 -7 -22l-65 -115q-12 -20 -23 -26.5t-40 -6.5h-89q-34 0 -34 25zM99 53.5q-76 68.5 -76 186.5t76 186.5t213 68.5t213.5 -68.5t76.5 -186.5t-76.5 -186.5t-213.5 -68.5t-213 68.5z
M400 240q0 110 -88 110t-88 -110q0 -56 23 -84t65 -28q88 0 88 112z" />
    <glyph glyph-name="obreve" unicode="&#x14f;" horiz-adv-x="625" 
d="M171.5 586q-48.5 48 -48.5 125q0 8 4.5 13t11.5 5h108q10 0 13.5 -4.5t3.5 -14.5q0 -49 48 -49t48 49q0 10 3.5 14.5t13.5 4.5h108q7 0 11.5 -5t4.5 -13q0 -77 -49 -125t-140 -48q-92 0 -140.5 48zM99 53.5q-76 68.5 -76 186.5t76 186.5t213 68.5t213.5 -68.5
t76.5 -186.5t-76.5 -186.5t-213.5 -68.5t-213 68.5zM400 240q0 110 -88 110t-88 -110q0 -56 23 -84t65 -28q88 0 88 112z" />
    <glyph glyph-name="uni01D2" unicode="&#x1d2;" horiz-adv-x="625" 
d="M229 540.5q-8 4.5 -22 21.5l-96 125q-12 17 -12 28q0 19 30 19h77q24 0 34.5 -5t20.5 -20l51 -77l50 77q10 15 20.5 20t34.5 5h77q30 0 30 -19q0 -11 -12 -28l-96 -125q-12 -17 -20.5 -21.5t-33.5 -4.5h-101q-24 0 -32 4.5zM99 53.5q-76 68.5 -76 186.5t76 186.5
t213 68.5t213.5 -68.5t76.5 -186.5t-76.5 -186.5t-213.5 -68.5t-213 68.5zM400 240q0 110 -88 110t-88 -110q0 -56 23 -84t65 -28q88 0 88 112z" />
    <glyph glyph-name="ocircumflex" unicode="&#xf4;" horiz-adv-x="625" 
d="M107.5 541.5q-8.5 5.5 -8.5 14.5q0 12 12 27l96 125q14 17 22 22t32 5h101q24 0 32.5 -5t21.5 -22l96 -125q12 -15 12 -27q0 -9 -8 -14.5t-23 -5.5h-75q-24 0 -35 5.5t-21 20.5l-50 77l-51 -77q-9 -15 -20 -20.5t-35 -5.5h-75q-15 0 -23.5 5.5zM99 53.5
q-76 68.5 -76 186.5t76 186.5t213 68.5t213.5 -68.5t76.5 -186.5t-76.5 -186.5t-213.5 -68.5t-213 68.5zM400 240q0 110 -88 110t-88 -110q0 -56 23 -84t65 -28q88 0 88 112z" />
    <glyph glyph-name="uni1ED1" unicode="&#x1ed1;" horiz-adv-x="642" 
d="M429 712q0 7 2 11l32 87q8 20 15.5 27t29.5 7h74q29 0 29 -21q0 -13 -8 -26l-42 -75q-13 -21 -23 -26.5t-36 -5.5h-44q-29 0 -29 22zM108 554q0 12 12 27l95 119q14 17 22 22t32 5h85q24 0 32.5 -5t21.5 -22l95 -119q12 -15 12 -27q0 -20 -31 -20h-71q-24 0 -35 5t-20 20
l-46 68l-47 -68q-9 -15 -20 -20t-35 -5h-71q-31 0 -31 20zM99 53.5q-76 68.5 -76 186.5t76 186.5t213 68.5t213.5 -68.5t76.5 -186.5t-76.5 -186.5t-213.5 -68.5t-213 68.5zM400 240q0 110 -88 110t-88 -110q0 -56 23 -84t65 -28q88 0 88 112z" />
    <glyph glyph-name="uni1ED9" unicode="&#x1ed9;" horiz-adv-x="625" 
d="M107.5 541.5q-8.5 5.5 -8.5 14.5q0 12 12 27l96 125q14 17 22 22t32 5h101q24 0 32.5 -5t21.5 -22l96 -125q12 -15 12 -27q0 -9 -8 -14.5t-23 -5.5h-75q-24 0 -35 5.5t-21 20.5l-50 77l-51 -77q-9 -15 -20 -20.5t-35 -5.5h-75q-15 0 -23.5 5.5zM99 53.5
q-76 68.5 -76 186.5t76 186.5t213 68.5t213.5 -68.5t76.5 -186.5t-76.5 -186.5t-213.5 -68.5t-213 68.5zM400 240q0 110 -88 110t-88 -110q0 -56 23 -84t65 -28q88 0 88 112zM252.5 -187.5q-17.5 18.5 -17.5 45.5v25q0 27 17.5 45.5t43.5 18.5h27q27 0 44 -18.5t17 -45.5
v-25q0 -27 -17 -45.5t-44 -18.5h-27q-26 0 -43.5 18.5z" />
    <glyph glyph-name="uni1ED3" unicode="&#x1ed3;" horiz-adv-x="625" 
d="M86 695.5q-10 5.5 -23 26.5l-42 75q-8 13 -8 26q0 21 29 21h74q22 0 29.5 -7t15.5 -27l32 -87q2 -4 2 -11q0 -22 -29 -22h-44q-26 0 -36 5.5zM109 554q0 12 12 27l95 119q13 17 21.5 22t32.5 5h85q24 0 32 -5t22 -22l95 -119q12 -15 12 -27q0 -20 -31 -20h-71
q-24 0 -35 5t-20 20l-47 68l-46 -68q-9 -15 -20 -20t-35 -5h-71q-31 0 -31 20zM99 53.5q-76 68.5 -76 186.5t76 186.5t213 68.5t213.5 -68.5t76.5 -186.5t-76.5 -186.5t-213.5 -68.5t-213 68.5zM400 240q0 110 -88 110t-88 -110q0 -56 23 -84t65 -28q88 0 88 112z" />
    <glyph glyph-name="uni1ED5" unicode="&#x1ed5;" horiz-adv-x="625" 
d="M436 695v34q0 13 6 18.5t21 5.5q17 0 24.5 4t7.5 14q0 16 -23 16q-27 0 -48 -13q-5 -3 -8 2l-20 44q-4 8 3 11q18 10 44 15.5t53 5.5q101 0 101 -75q0 -32 -19 -49.5t-47 -17.5v-15q0 -17 -17 -17h-61q-17 0 -17 17zM116.5 539q-8.5 5 -8.5 15q0 13 13 27l95 119
q13 17 21.5 22t32.5 5h84q24 0 32.5 -5t21.5 -22l95 -119q12 -15 12 -27q0 -20 -31 -20h-71q-23 0 -34 5t-21 20l-46 68l-47 -68q-9 -15 -20 -20t-35 -5h-71q-14 0 -22.5 5zM99 53.5q-76 68.5 -76 186.5t76 186.5t213 68.5t213.5 -68.5t76.5 -186.5t-76.5 -186.5
t-213.5 -68.5t-213 68.5zM400 240q0 110 -88 110t-88 -110q0 -56 23 -84t65 -28q88 0 88 112z" />
    <glyph glyph-name="uni1ED7" unicode="&#x1ed7;" horiz-adv-x="625" 
d="M347 748.5q-16 4.5 -44 15.5q-37 15 -54 15q-18 0 -28 -4.5t-23 -17.5q-14 -16 -25 -16q-7 0 -15.5 4.5t-23.5 15.5q-15 12 -21 19.5t-6 14.5q0 10 12 23q24 32 49.5 46.5t60.5 14.5q24 0 42 -5.5t43 -16.5q3 -1 18.5 -7.5t28.5 -6.5q16 0 26.5 5.5t23.5 20.5
q10 13 21 13q12 0 40 -20q16 -13 22.5 -20.5t6.5 -15.5q0 -9 -12 -26q-23 -32 -45.5 -44t-61.5 -12q-19 0 -35 4.5zM173 592.5q-50 44.5 -50 113.5q0 8 4.5 13t11.5 5h91q10 0 13.5 -4.5t3.5 -14.5q0 -50 65 -50t65 50q0 10 3.5 14.5t13.5 4.5h91q7 0 11.5 -5t4.5 -13
q0 -69 -50 -113.5t-139 -44.5t-139 44.5zM99 53.5q-76 68.5 -76 186.5t76 186.5t213 68.5t213.5 -68.5t76.5 -186.5t-76.5 -186.5t-213.5 -68.5t-213 68.5zM400 240q0 110 -88 110t-88 -110q0 -56 23 -84t65 -28q88 0 88 112z" />
    <glyph glyph-name="odieresis" unicode="&#xf6;" horiz-adv-x="625" 
d="M147 549.5q-17 18.5 -17 45.5v25q0 27 17 45.5t44 18.5h27q27 0 44 -18.5t17 -45.5v-25q0 -27 -17 -45.5t-44 -18.5h-27q-27 0 -44 18.5zM361.5 549.5q-17.5 18.5 -17.5 45.5v25q0 27 17.5 45.5t43.5 18.5h27q27 0 44 -18.5t17 -45.5v-25q0 -27 -17 -45.5t-44 -18.5h-27
q-26 0 -43.5 18.5zM99 53.5q-76 68.5 -76 186.5t76 186.5t213 68.5t213.5 -68.5t76.5 -186.5t-76.5 -186.5t-213.5 -68.5t-213 68.5zM400 240q0 110 -88 110t-88 -110q0 -56 23 -84t65 -28q88 0 88 112z" />
    <glyph glyph-name="uni1ECD" unicode="&#x1ecd;" horiz-adv-x="625" 
d="M99 53.5q-76 68.5 -76 186.5t76 186.5t213 68.5t213.5 -68.5t76.5 -186.5t-76.5 -186.5t-213.5 -68.5t-213 68.5zM400 240q0 110 -88 110t-88 -110q0 -56 23 -84t65 -28q88 0 88 112zM252.5 -187.5q-17.5 18.5 -17.5 45.5v25q0 27 17.5 45.5t43.5 18.5h27q27 0 44 -18.5
t17 -45.5v-25q0 -27 -17 -45.5t-44 -18.5h-27q-26 0 -43.5 18.5z" />
    <glyph glyph-name="ograve" unicode="&#xf2;" horiz-adv-x="625" 
d="M239 541.5q-11 6.5 -23 26.5l-65 115q-7 11 -7 22q0 12 10.5 18.5t28.5 6.5h120q26 0 35.5 -7t16.5 -27l44 -121q3 -9 3 -16q0 -11 -8.5 -17.5t-25.5 -6.5h-89q-29 0 -40 6.5zM99 53.5q-76 68.5 -76 186.5t76 186.5t213 68.5t213.5 -68.5t76.5 -186.5t-76.5 -186.5
t-213.5 -68.5t-213 68.5zM400 240q0 110 -88 110t-88 -110q0 -56 23 -84t65 -28q88 0 88 112z" />
    <glyph glyph-name="uni1ECF" unicode="&#x1ecf;" horiz-adv-x="625" 
d="M250 555v52q0 17 7.5 24t28.5 7q26 0 37.5 5.5t11.5 20.5q0 22 -36 22q-29 0 -67 -18q-8 -3 -12 3l-27 63q-2 4 -2 6q0 5 6 8q21 14 56.5 22.5t68.5 8.5q71 0 106.5 -27.5t35.5 -79.5q0 -46 -26.5 -73.5t-65.5 -27.5v-16q0 -23 -23 -23h-76q-23 0 -23 23zM99 53.5
q-76 68.5 -76 186.5t76 186.5t213 68.5t213.5 -68.5t76.5 -186.5t-76.5 -186.5t-213.5 -68.5t-213 68.5zM400 240q0 110 -88 110t-88 -110q0 -56 23 -84t65 -28q88 0 88 112z" />
    <glyph glyph-name="ohorn" unicode="&#x1a1;" horiz-adv-x="717" 
d="M99 53.5q-76 68.5 -76 186.5t76 186.5t213 68.5q128 0 205 -63q24 7 34.5 26t10.5 56q0 20 5.5 27.5t19.5 7.5h108q17 0 23 -7t6 -29q0 -82 -30 -132t-101 -71q9 -33 9 -70q0 -118 -76.5 -186.5t-213.5 -68.5t-213 68.5zM400 240q0 110 -88 110t-88 -110q0 -56 23 -84
t65 -28q88 0 88 112z" />
    <glyph glyph-name="uni1EDB" unicode="&#x1edb;" horiz-adv-x="717" 
d="M237 576q0 8 3 15l44 121q7 20 16.5 27t35.5 7h120q18 0 28.5 -6.5t10.5 -18.5q0 -11 -7 -22l-65 -115q-12 -20 -23 -26.5t-40 -6.5h-89q-34 0 -34 25zM99 53.5q-76 68.5 -76 186.5t76 186.5t213 68.5q128 0 205 -63q24 7 34.5 26t10.5 56q0 20 5.5 27.5t19.5 7.5h108
q17 0 23 -7t6 -29q0 -82 -30 -132t-101 -71q9 -33 9 -70q0 -118 -76.5 -186.5t-213.5 -68.5t-213 68.5zM400 240q0 110 -88 110t-88 -110q0 -56 23 -84t65 -28q88 0 88 112z" />
    <glyph glyph-name="uni1EE3" unicode="&#x1ee3;" horiz-adv-x="717" 
d="M99 53.5q-76 68.5 -76 186.5t76 186.5t213 68.5q128 0 205 -63q24 7 34.5 26t10.5 56q0 20 5.5 27.5t19.5 7.5h108q17 0 23 -7t6 -29q0 -82 -30 -132t-101 -71q9 -33 9 -70q0 -118 -76.5 -186.5t-213.5 -68.5t-213 68.5zM400 240q0 110 -88 110t-88 -110q0 -56 23 -84
t65 -28q88 0 88 112zM256.5 -187.5q-17.5 18.5 -17.5 45.5v25q0 27 17.5 45.5t43.5 18.5h27q27 0 44 -18.5t17 -45.5v-25q0 -27 -17 -45.5t-44 -18.5h-27q-26 0 -43.5 18.5z" />
    <glyph glyph-name="uni1EDD" unicode="&#x1edd;" horiz-adv-x="717" 
d="M281 557.5q-11 6.5 -23 26.5l-65 115q-7 11 -7 22q0 12 10.5 18.5t28.5 6.5h120q26 0 35.5 -7t16.5 -27l44 -121q3 -9 3 -16q0 -11 -8.5 -17.5t-25.5 -6.5h-89q-29 0 -40 6.5zM99 53.5q-76 68.5 -76 186.5t76 186.5t213 68.5q128 0 205 -63q24 7 34.5 26t10.5 56
q0 20 5.5 27.5t19.5 7.5h108q17 0 23 -7t6 -29q0 -82 -30 -132t-101 -71q9 -33 9 -70q0 -118 -76.5 -186.5t-213.5 -68.5t-213 68.5zM400 240q0 110 -88 110t-88 -110q0 -56 23 -84t65 -28q88 0 88 112z" />
    <glyph glyph-name="uni1EDF" unicode="&#x1edf;" horiz-adv-x="717" 
d="M247 555v52q0 17 7.5 24t28.5 7q26 0 37.5 5.5t11.5 20.5q0 22 -36 22q-29 0 -67 -18q-8 -3 -12 3l-27 63q-2 4 -2 6q0 5 6 8q21 14 56.5 22.5t68.5 8.5q71 0 106.5 -27.5t35.5 -79.5q0 -46 -26.5 -73.5t-65.5 -27.5v-16q0 -23 -23 -23h-76q-23 0 -23 23zM99 53.5
q-76 68.5 -76 186.5t76 186.5t213 68.5q128 0 205 -63q24 7 34.5 26t10.5 56q0 20 5.5 27.5t19.5 7.5h108q17 0 23 -7t6 -29q0 -82 -30 -132t-101 -71q9 -33 9 -70q0 -118 -76.5 -186.5t-213.5 -68.5t-213 68.5zM400 240q0 110 -88 110t-88 -110q0 -56 23 -84t65 -28
q88 0 88 112z" />
    <glyph glyph-name="uni1EE1" unicode="&#x1ee1;" horiz-adv-x="717" 
d="M369 549.5q-19 6.5 -47 20.5q-23 11 -39 17t-32 6q-18 0 -29.5 -7t-27.5 -25q-11 -12 -23 -12q-17 0 -52 27q-17 12 -24.5 22t-7.5 20q0 14 13 31q31 43 59 62.5t68 19.5q29 0 52.5 -8t50.5 -22q23 -11 35 -15.5t26 -4.5q17 0 28 7t28 27q11 13 23 13q17 0 52 -26
q17 -13 24.5 -23t7.5 -20q0 -15 -13 -32q-31 -45 -59.5 -64.5t-71.5 -19.5q-22 0 -41 6.5zM99 53.5q-76 68.5 -76 186.5t76 186.5t213 68.5q128 0 205 -63q24 7 34.5 26t10.5 56q0 20 5.5 27.5t19.5 7.5h108q17 0 23 -7t6 -29q0 -82 -30 -132t-101 -71q9 -33 9 -70
q0 -118 -76.5 -186.5t-213.5 -68.5t-213 68.5zM400 240q0 110 -88 110t-88 -110q0 -56 23 -84t65 -28q88 0 88 112z" />
    <glyph glyph-name="ohungarumlaut" unicode="&#x151;" horiz-adv-x="625" 
d="M98 541.5q-9 6.5 -9 17.5q0 8 4 16l59 121q11 21 19.5 27.5t33.5 6.5h104q18 0 29 -6.5t11 -18.5q0 -10 -9 -22l-80 -115q-11 -15 -17 -21t-16.5 -9t-30.5 -3h-72q-17 0 -26 6.5zM339 541.5q-9 6.5 -9 18.5q0 5 4 15l60 121q8 16 12 21.5t13.5 9t27.5 3.5h103
q18 0 29 -6.5t11 -18.5q0 -11 -8 -22l-81 -115q-15 -21 -25 -27t-38 -6h-72q-18 0 -27 6.5zM99 53.5q-76 68.5 -76 186.5t76 186.5t213 68.5t213.5 -68.5t76.5 -186.5t-76.5 -186.5t-213.5 -68.5t-213 68.5zM400 240q0 110 -88 110t-88 -110q0 -56 23 -84t65 -28
q88 0 88 112z" />
    <glyph glyph-name="omacron" unicode="&#x14d;" horiz-adv-x="625" 
d="M138.5 574.5q-10.5 11.5 -10.5 38.5v46q0 27 10.5 38.5t38.5 11.5h269q28 0 38 -11.5t10 -38.5v-46q0 -27 -10 -38.5t-38 -11.5h-269q-28 0 -38.5 11.5zM99 53.5q-76 68.5 -76 186.5t76 186.5t213 68.5t213.5 -68.5t76.5 -186.5t-76.5 -186.5t-213.5 -68.5t-213 68.5z
M400 240q0 110 -88 110t-88 -110q0 -56 23 -84t65 -28q88 0 88 112z" />
    <glyph glyph-name="oslash" unicode="&#xf8;" horiz-adv-x="625" 
d="M573.5 365.5q28.5 -54.5 28.5 -125.5q0 -118 -76.5 -186.5t-213.5 -68.5h-8l-21 -51q-8 -20 -29 -20h-145q-17 0 -17 15q0 4 4 16l34 85q-52 33 -79.5 86.5t-27.5 123.5q0 118 76 186.5t213 68.5h5l23 58q8 20 30 20h144q17 0 17 -14q0 -9 -4 -17l-36 -90
q54 -32 82.5 -86.5zM400 240q0 110 -88 110t-88 -110q0 -56 23 -84t65 -28q88 0 88 112z" />
    <glyph glyph-name="oslashacute" unicode="&#x1ff;" horiz-adv-x="625" 
d="M250 609q0 8 3 15l44 121q7 20 16.5 27t35.5 7h120q18 0 28.5 -6.5t10.5 -18.5q0 -11 -7 -22l-65 -115q-12 -20 -23 -26.5t-40 -6.5h-89q-34 0 -34 25zM573.5 365.5q28.5 -54.5 28.5 -125.5q0 -118 -76.5 -186.5t-213.5 -68.5h-8l-21 -51q-8 -20 -29 -20h-145
q-17 0 -17 15q0 4 4 16l34 85q-52 33 -79.5 86.5t-27.5 123.5q0 118 76 186.5t213 68.5h5l23 58q8 20 30 20h144q17 0 17 -14q0 -9 -4 -17l-36 -90q54 -32 82.5 -86.5zM400 240q0 110 -88 110t-88 -110q0 -56 23 -84t65 -28q88 0 88 112z" />
    <glyph glyph-name="otilde" unicode="&#xf5;" horiz-adv-x="625" 
d="M365 549.5q-19 6.5 -47 20.5q-23 11 -39 17t-32 6q-18 0 -29.5 -7t-27.5 -25q-11 -12 -23 -12q-17 0 -52 27q-17 12 -24.5 22t-7.5 20q0 14 13 31q31 43 59 62.5t68 19.5q29 0 52.5 -8t50.5 -22q23 -11 35 -15.5t26 -4.5q17 0 28 7t28 27q11 13 23 13q17 0 52 -26
q17 -13 24.5 -23t7.5 -20q0 -15 -13 -32q-31 -45 -59.5 -64.5t-71.5 -19.5q-22 0 -41 6.5zM99 53.5q-76 68.5 -76 186.5t76 186.5t213 68.5t213.5 -68.5t76.5 -186.5t-76.5 -186.5t-213.5 -68.5t-213 68.5zM400 240q0 110 -88 110t-88 -110q0 -56 23 -84t65 -28q88 0 88 112
z" />
    <glyph glyph-name="oe" unicode="&#x153;" horiz-adv-x="1029" 
d="M94.5 427q71.5 68 207.5 68q156 0 225 -90q64 90 220 90q125 0 192 -66t67 -181q0 -50 -44 -50h-314q0 -43 32.5 -66t98.5 -23q41 0 68.5 7.5t55.5 22.5q12 5 16 5q9 0 15 -12l34 -64q5 -10 5 -15q0 -9 -12 -17q-42 -27 -89 -39t-113 -12q-72 0 -132 22t-97 70
q-70 -92 -228 -92q-136 0 -207.5 68t-71.5 187t71.5 187zM826 297q0 38 -22 59t-66 21t-67 -21.5t-23 -58.5h178zM247 156q23 -28 65 -28q88 0 88 112q0 110 -88 110t-88 -110q0 -56 23 -84z" />
    <glyph glyph-name="p" unicode="p" horiz-adv-x="623" 
d="M54.5 -190q-11.5 12 -11.5 38v573q45 32 113 53t142 21q302 0 302 -256q0 -116 -64 -185t-181 -69q-33 0 -63.5 8t-50.5 22v-167q0 -26 -12 -38t-41 -12h-93q-29 0 -40.5 12zM376.5 152.5q21.5 32.5 21.5 87.5q0 65 -25.5 91.5t-78.5 26.5q-34 0 -54 -9v-159
q0 -34 19 -52t53 -18q43 0 64.5 32.5z" />
    <glyph glyph-name="thorn" unicode="&#xfe;" horiz-adv-x="623" 
d="M54.5 -190q-11.5 12 -11.5 38v796q0 26 12 38.5t40 12.5h93q29 0 41 -12.5t12 -38.5v-160q15 5 36.5 8t40.5 3q134 0 208 -65t74 -191q0 -116 -64 -185t-181 -69q-34 0 -64.5 7.5t-49.5 20.5v-165q0 -26 -12 -38t-41 -12h-93q-29 0 -40.5 12zM377 152.5q21 32.5 21 87.5
q0 65 -26 91.5t-79 26.5q-33 0 -53 -9v-159q0 -34 19.5 -52t53.5 -18q43 0 64 32.5z" />
    <glyph glyph-name="q" unicode="q" horiz-adv-x="623" 
d="M393 -190q-12 12 -12 38v167q-19 -14 -50 -22t-64 -8q-118 0 -181 63.5t-63 176.5q0 129 76.5 199.5t224.5 70.5q75 0 143 -21t113 -53v-573q0 -26 -12 -38t-41 -12h-93q-29 0 -41 12zM363 138q19 18 19 52v159q-19 9 -53 9q-51 0 -78 -33t-27 -99q0 -106 86 -106
q34 0 53 18z" />
    <glyph glyph-name="r" unicode="r" horiz-adv-x="461" 
d="M55 12q-12 12 -12 38v399q0 18 6.5 24.5t27.5 6.5h103q12 0 18.5 -3.5t7.5 -12.5l5 -29q60 60 145 60q33 0 54 -5.5t38 -17.5q10 -7 10 -16q0 -3 -2 -11l-32 -91q-4 -14 -15 -14q-5 0 -12 4q-27 15 -65 15t-62.5 -21t-24.5 -56v-232q0 -26 -11.5 -38t-40.5 -12h-97
q-29 0 -41 12z" />
    <glyph glyph-name="racute" unicode="&#x155;" horiz-adv-x="461" 
d="M104 576q0 8 3 15l44 121q7 20 16.5 27t35.5 7h120q18 0 28.5 -6.5t10.5 -18.5q0 -11 -7 -22l-65 -115q-12 -20 -23 -26.5t-40 -6.5h-89q-34 0 -34 25zM55 12q-12 12 -12 38v399q0 18 6.5 24.5t27.5 6.5h103q12 0 18.5 -3.5t7.5 -12.5l5 -29q60 60 145 60q33 0 54 -5.5
t38 -17.5q10 -7 10 -16q0 -3 -2 -11l-32 -91q-4 -14 -15 -14q-5 0 -12 4q-27 15 -65 15t-62.5 -21t-24.5 -56v-232q0 -26 -11.5 -38t-40.5 -12h-97q-29 0 -41 12z" />
    <glyph glyph-name="rcaron" unicode="&#x159;" horiz-adv-x="474" 
d="M167 548.5q-8 4.5 -22 21.5l-96 125q-12 17 -12 28q0 19 30 19h77q24 0 34.5 -5t20.5 -20l51 -77l50 77q10 15 20.5 20t34.5 5h77q30 0 30 -19q0 -11 -12 -28l-96 -125q-12 -17 -20.5 -21.5t-33.5 -4.5h-101q-24 0 -32 4.5zM67 12q-12 12 -12 38v399q0 18 6.5 24.5
t27.5 6.5h103q12 0 18.5 -3.5t7.5 -12.5l5 -29q60 60 145 60q33 0 54 -5.5t38 -17.5q10 -7 10 -16q0 -3 -2 -11l-32 -91q-4 -14 -15 -14q-5 0 -12 4q-27 15 -65 15t-62.5 -21t-24.5 -56v-232q0 -26 -11.5 -38t-40.5 -12h-97q-29 0 -41 12z" />
    <glyph glyph-name="rcommaaccent" unicode="&#x157;" horiz-adv-x="462" 
d="M55 12q-12 12 -12 38v399q0 18 6.5 24.5t27.5 6.5h103q12 0 18.5 -3.5t7.5 -12.5l5 -29q60 60 145 60q33 0 54 -5.5t38 -17.5q10 -7 10 -16q0 -3 -2 -11l-32 -91q-4 -14 -15 -14q-5 0 -12 4q-27 15 -65 15t-62.5 -21t-24.5 -56v-232q0 -26 -11.5 -38t-40.5 -12h-97
q-29 0 -41 12zM1 -244q0 3 2 13l45 158q7 22 17 29.5t33 7.5h80q20 0 29 -5t9 -16q0 -10 -8 -29l-66 -155q-5 -12 -13.5 -17.5t-25.5 -5.5h-76q-26 0 -26 20z" />
    <glyph glyph-name="uni1E5B" unicode="&#x1e5b;" horiz-adv-x="462" 
d="M55 12q-12 12 -12 38v399q0 18 6.5 24.5t27.5 6.5h103q12 0 18.5 -3.5t7.5 -12.5l5 -29q60 60 145 60q33 0 54 -5.5t38 -17.5q10 -7 10 -16q0 -3 -2 -11l-32 -91q-4 -14 -15 -14q-5 0 -12 4q-27 15 -65 15t-62.5 -21t-24.5 -56v-232q0 -26 -11.5 -38t-40.5 -12h-97
q-29 0 -41 12zM86.5 -187.5q-17.5 18.5 -17.5 45.5v25q0 27 17.5 45.5t43.5 18.5h27q27 0 44 -18.5t17 -45.5v-25q0 -27 -17 -45.5t-44 -18.5h-27q-26 0 -43.5 18.5z" />
    <glyph glyph-name="uni1E5D" unicode="&#x1e5d;" horiz-adv-x="465" 
d="M52.5 574.5q-10.5 11.5 -10.5 38.5v46q0 27 10.5 38.5t38.5 11.5h269q28 0 38 -11.5t10 -38.5v-46q0 -27 -10 -38.5t-38 -11.5h-269q-28 0 -38.5 11.5zM55 12q-12 12 -12 38v399q0 18 6.5 24.5t27.5 6.5h103q12 0 18.5 -3.5t7.5 -12.5l5 -29q60 60 145 60q33 0 54 -5.5
t38 -17.5q10 -7 10 -16q0 -3 -2 -11l-32 -91q-4 -14 -15 -14q-5 0 -12 4q-27 15 -65 15t-62.5 -21t-24.5 -56v-232q0 -26 -11.5 -38t-40.5 -12h-97q-29 0 -41 12zM88.5 -187.5q-17.5 18.5 -17.5 45.5v25q0 27 17.5 45.5t43.5 18.5h27q27 0 44 -18.5t17 -45.5v-25
q0 -27 -17 -45.5t-44 -18.5h-27q-26 0 -43.5 18.5z" />
    <glyph glyph-name="uni1E5F" unicode="&#x1e5f;" horiz-adv-x="495" 
d="M86 12q-12 12 -12 38v399q0 18 6.5 24.5t27.5 6.5h103q12 0 18.5 -3.5t7.5 -12.5l5 -29q60 60 145 60q33 0 54 -5.5t38 -17.5q10 -7 10 -16q0 -3 -2 -11l-32 -91q-4 -14 -15 -14q-5 0 -12 4q-27 15 -65 15t-62.5 -21t-24.5 -56v-232q0 -26 -11.5 -38t-40.5 -12h-97
q-29 0 -41 12zM20 -175.5q-10 11.5 -10 37.5v31q0 26 10 38t38 12h243q28 0 38.5 -12t10.5 -38v-31q0 -26 -10.5 -37.5t-38.5 -11.5h-243q-28 0 -38 11.5z" />
    <glyph glyph-name="s" unicode="s" horiz-adv-x="537" 
d="M42 37q-19 12 -19 21q0 5 5 15l42 75q6 12 15 12q6 0 17 -6q28 -15 71.5 -27.5t77.5 -12.5q32 0 46 6.5t14 21.5q0 14 -19.5 23.5t-70.5 24.5l-22 6q-83 25 -120 57t-37 91q0 73 63 112t169 39q66 0 115 -12t94 -36q18 -10 18 -22q0 -7 -6 -18l-41 -65q-7 -11 -14 -11
q-6 0 -16 6q-24 13 -56 21t-62 8q-69 0 -69 -30q0 -14 22.5 -23.5t69.5 -20.5q11 -3 30.5 -8t32.5 -10q48 -17 74 -34.5t37 -41t11 -59.5q0 -43 -26 -77.5t-80 -55.5t-133 -21q-141 0 -233 52z" />
    <glyph glyph-name="sacute" unicode="&#x15b;" horiz-adv-x="537" 
d="M188 560q0 8 3 15l44 121q7 20 16.5 27t35.5 7h120q18 0 28.5 -6.5t10.5 -18.5q0 -11 -7 -22l-65 -115q-12 -20 -23 -26.5t-40 -6.5h-89q-34 0 -34 25zM42 37q-19 12 -19 21q0 5 5 15l42 75q6 12 15 12q6 0 17 -6q28 -15 71.5 -27.5t77.5 -12.5q32 0 46 6.5t14 21.5
q0 14 -19.5 23.5t-70.5 24.5l-22 6q-83 25 -120 57t-37 91q0 73 63 112t169 39q66 0 115 -12t94 -36q18 -10 18 -22q0 -7 -6 -18l-41 -65q-7 -11 -14 -11q-6 0 -16 6q-24 13 -56 21t-62 8q-69 0 -69 -30q0 -14 22.5 -23.5t69.5 -20.5q11 -3 30.5 -8t32.5 -10
q48 -17 74 -34.5t37 -41t11 -59.5q0 -43 -26 -77.5t-80 -55.5t-133 -21q-141 0 -233 52z" />
    <glyph glyph-name="scaron" unicode="&#x161;" horiz-adv-x="537" 
d="M193 540.5q-8 4.5 -22 21.5l-96 125q-12 17 -12 28q0 19 30 19h77q24 0 34.5 -5t20.5 -20l51 -77l50 77q10 15 20.5 20t34.5 5h77q30 0 30 -19q0 -11 -12 -28l-96 -125q-12 -17 -20.5 -21.5t-33.5 -4.5h-101q-24 0 -32 4.5zM42 37q-19 12 -19 21q0 5 5 15l42 75
q6 12 15 12q6 0 17 -6q28 -15 71.5 -27.5t77.5 -12.5q32 0 46 6.5t14 21.5q0 14 -19.5 23.5t-70.5 24.5l-22 6q-83 25 -120 57t-37 91q0 73 63 112t169 39q66 0 115 -12t94 -36q18 -10 18 -22q0 -7 -6 -18l-41 -65q-7 -11 -14 -11q-6 0 -16 6q-24 13 -56 21t-62 8
q-69 0 -69 -30q0 -14 22.5 -23.5t69.5 -20.5q11 -3 30.5 -8t32.5 -10q48 -17 74 -34.5t37 -41t11 -59.5q0 -43 -26 -77.5t-80 -55.5t-133 -21q-141 0 -233 52z" />
    <glyph glyph-name="scedilla" unicode="&#x15f;" horiz-adv-x="537" 
d="M473 45q-41 -40 -121 -54l-27 -60q34 -5 50 -23t16 -51q0 -38 -33 -62.5t-98 -24.5q-28 0 -56.5 5t-42.5 12q-9 5 -11 8t1 10l20 54q3 7 9 7q3 0 9 -3q19 -10 43 -10q18 0 25.5 5t7.5 16q0 15 -12 20.5t-39 5.5h-17q-8 0 -10.5 4.5t0.5 11.5l29 72q-104 9 -174 49
q-19 12 -19 21q0 5 5 15l42 75q6 12 15 12q6 0 17 -6q28 -15 71.5 -27.5t77.5 -12.5q32 0 46 6.5t14 21.5q0 14 -19.5 23.5t-70.5 24.5l-22 6q-83 25 -120 57t-37 91q0 73 63 112t169 39q67 0 116 -12t93 -36q18 -10 18 -22q0 -7 -6 -18l-41 -65q-7 -11 -14 -11q-6 0 -16 6
q-24 13 -56 21t-62 8q-69 0 -69 -30q0 -14 22.5 -23.5t69.5 -20.5q11 -3 30.5 -8t32.5 -10q48 -17 74 -34.5t37 -41t11 -59.5q0 -54 -41 -94z" />
    <glyph glyph-name="scircumflex" unicode="&#x15d;" horiz-adv-x="537" 
d="M71.5 541.5q-8.5 5.5 -8.5 14.5q0 12 12 27l96 125q14 17 22 22t32 5h101q24 0 32.5 -5t21.5 -22l96 -125q12 -15 12 -27q0 -9 -8 -14.5t-23 -5.5h-75q-24 0 -35 5.5t-21 20.5l-50 77l-51 -77q-9 -15 -20 -20.5t-35 -5.5h-75q-15 0 -23.5 5.5zM42 37q-19 12 -19 21
q0 5 5 15l42 75q6 12 15 12q6 0 17 -6q28 -15 71.5 -27.5t77.5 -12.5q32 0 46 6.5t14 21.5q0 14 -19.5 23.5t-70.5 24.5l-22 6q-83 25 -120 57t-37 91q0 73 63 112t169 39q66 0 115 -12t94 -36q18 -10 18 -22q0 -7 -6 -18l-41 -65q-7 -11 -14 -11q-6 0 -16 6q-24 13 -56 21
t-62 8q-69 0 -69 -30q0 -14 22.5 -23.5t69.5 -20.5q11 -3 30.5 -8t32.5 -10q48 -17 74 -34.5t37 -41t11 -59.5q0 -43 -26 -77.5t-80 -55.5t-133 -21q-141 0 -233 52z" />
    <glyph glyph-name="scommaaccent" unicode="&#x219;" horiz-adv-x="537" 
d="M42 37q-19 12 -19 21q0 5 5 15l42 75q7 11 15 11q5 0 17 -5q27 -15 72 -27.5t79 -12.5q30 0 44 7t14 21t-19.5 23.5t-70.5 24.5l-22 6q-84 26 -120.5 57.5t-36.5 90.5q0 73 63 112t169 39q67 0 116 -12t93 -36q18 -10 18 -22q0 -7 -6 -18l-41 -65q-7 -11 -14 -11
q-6 0 -16 6q-24 13 -56 21t-62 8q-69 0 -69 -30q0 -13 21.5 -22.5t68.5 -21.5q56 -16 65 -19q48 -16 74 -33t37 -40.5t11 -60.5q0 -43 -26 -78t-80 -55.5t-133 -20.5q-141 0 -233 52zM161 -252q0 3 2 13l47 162q7 23 16.5 30t33.5 7h80q20 0 28.5 -5t8.5 -17q0 -11 -7 -28
l-68 -159q-6 -12 -14.5 -17.5t-24.5 -5.5h-76q-26 0 -26 20z" />
    <glyph glyph-name="uni1E61" unicode="&#x1e61;" horiz-adv-x="537" 
d="M211 579.5q-17 18.5 -17 45.5v25q0 27 17 45.5t44 18.5h27q27 0 44 -18.5t17 -45.5v-25q0 -27 -17 -45.5t-44 -18.5h-27q-27 0 -44 18.5zM42 37q-19 12 -19 21q0 5 5 15l42 75q6 12 15 12q6 0 17 -6q28 -15 71.5 -27.5t77.5 -12.5q32 0 46 6.5t14 21.5q0 14 -19.5 23.5
t-70.5 24.5l-22 6q-83 25 -120 57t-37 91q0 73 63 112t169 39q66 0 115 -12t94 -36q18 -10 18 -22q0 -7 -6 -18l-41 -65q-7 -11 -14 -11q-6 0 -16 6q-24 13 -56 21t-62 8q-69 0 -69 -30q0 -14 22.5 -23.5t69.5 -20.5q11 -3 30.5 -8t32.5 -10q48 -17 74 -34.5t37 -41
t11 -59.5q0 -43 -26 -77.5t-80 -55.5t-133 -21q-141 0 -233 52z" />
    <glyph glyph-name="uni1E63" unicode="&#x1e63;" horiz-adv-x="537" 
d="M42 37q-19 12 -19 21q0 5 5 15l42 75q6 12 15 12q6 0 17 -6q28 -15 71.5 -27.5t77.5 -12.5q32 0 46 6.5t14 21.5q0 14 -19.5 23.5t-70.5 24.5l-22 6q-83 25 -120 57t-37 91q0 73 63 112t169 39q66 0 115 -12t94 -36q18 -10 18 -22q0 -7 -6 -18l-41 -65q-7 -11 -14 -11
q-6 0 -16 6q-24 13 -56 21t-62 8q-69 0 -69 -30q0 -14 22.5 -23.5t69.5 -20.5q11 -3 30.5 -8t32.5 -10q48 -17 74 -34.5t37 -41t11 -59.5q0 -43 -26 -77.5t-80 -55.5t-133 -21q-141 0 -233 52zM206.5 -187.5q-17.5 18.5 -17.5 45.5v25q0 27 17.5 45.5t43.5 18.5h27
q27 0 44 -18.5t17 -45.5v-25q0 -27 -17 -45.5t-44 -18.5h-27q-26 0 -43.5 18.5z" />
    <glyph glyph-name="germandbls" unicode="&#xdf;" horiz-adv-x="658" 
d="M271 26q-10 6 -10 17q0 9 6 18l44 75q5 9 12 9t12 -4q17 -11 44 -11q51 0 51 76q0 43 -22.5 58.5t-73.5 15.5q-23 0 -34 7.5t-11 26.5v65q0 19 9 26.5t32 7.5q45 0 65 15t20 54t-19.5 56.5t-67.5 17.5q-43 0 -65.5 -22t-22.5 -61v-423q0 -26 -12.5 -38t-41.5 -12h-95
q-29 0 -41 12t-12 38v435q0 109 73 172t215 63q144 0 217.5 -57.5t73.5 -161.5q0 -55 -21 -95t-57 -55q47 -16 71.5 -59t24.5 -99q0 -99 -52.5 -153.5t-153.5 -54.5q-97 0 -158 41z" />
    <glyph glyph-name="uni0259" unicode="&#x259;" horiz-adv-x="594" 
d="M91 50q-68 65 -68 182q0 49 43 49h314q0 42 -35 65.5t-96 23.5q-41 0 -67.5 -7.5t-55.5 -22.5q-12 -5 -17 -5q-9 0 -15 12l-34 64q-5 10 -5 15q0 9 13 18q80 51 211 51q84 0 150 -28t104 -84.5t38 -137.5q0 -127 -72 -193.5t-208 -66.5q-132 0 -200 65zM357.5 123.5
q22.5 21.5 22.5 58.5h-177q0 -80 88 -80q44 0 66.5 21.5z" />
    <glyph glyph-name="t" unicode="t" horiz-adv-x="483" 
d="M144 37.5q-51 52.5 -51 146.5v158h-41q-28 0 -37.5 11t-9.5 38v39q0 27 9.5 38.5t37.5 11.5h41v25q0 24 11 48.5t32 59.5q10 17 18.5 22t30.5 5h59q28 0 39.5 -12t11.5 -38v-110h80q28 0 37.5 -11.5t9.5 -38.5v-39q0 -27 -9.5 -38t-37.5 -11h-80v-154q0 -31 12 -45.5
t39 -14.5q17 0 27.5 4t25.5 14q8 5 15 5q10 0 17 -12l42 -72q7 -12 7 -19q0 -9 -12 -17q-34 -23 -76.5 -34.5t-100.5 -11.5q-96 0 -147 52.5z" />
    <glyph glyph-name="tbar" unicode="&#x167;" horiz-adv-x="483" 
d="M480 48q0 -9 -12 -17q-34 -23 -76.5 -34.5t-100.5 -11.5q-93 0 -144 50t-54 139h-27q-24 0 -31 7t-7 30v52q0 23 7.5 30t30.5 7h27v42h-41q-28 0 -37.5 11t-9.5 38v39q0 27 9.5 38.5t37.5 11.5h41v25q0 24 11 48.5t32 59.5q10 17 18.5 22t30.5 5h59q28 0 39.5 -12
t11.5 -38v-110h80q28 0 37.5 -11.5t9.5 -38.5v-39q0 -27 -9.5 -38t-37.5 -11h-80v-42h60q23 0 30.5 -7t7.5 -30v-52q0 -23 -7 -30t-31 -7h-59q2 -24 14 -35t36 -11q17 0 27.5 4t25.5 14q8 5 15 5q10 0 17 -12l42 -72q7 -12 7 -19z" />
    <glyph glyph-name="tcaron" unicode="&#x165;" horiz-adv-x="570" 
d="M352 600q0 3 2 13l45 158q7 22 17 29.5t33 7.5h80q20 0 29 -5t9 -16q0 -10 -8 -29l-66 -155q-5 -12 -13.5 -17.5t-25.5 -5.5h-76q-26 0 -26 20zM144 37.5q-51 52.5 -51 146.5v158h-41q-28 0 -37.5 11t-9.5 38v39q0 27 9.5 38.5t37.5 11.5h41v25q0 24 11 48.5t32 59.5
q10 17 18.5 22t30.5 5h59q28 0 39.5 -12t11.5 -38v-110h80q28 0 37.5 -11.5t9.5 -38.5v-39q0 -27 -9.5 -38t-37.5 -11h-80v-154q0 -31 12 -45.5t39 -14.5q17 0 27.5 4t25.5 14q8 5 15 5q10 0 17 -12l42 -72q7 -12 7 -19q0 -9 -12 -17q-34 -23 -76.5 -34.5t-100.5 -11.5
q-96 0 -147 52.5z" />
    <glyph glyph-name="uni0163" unicode="&#x163;" horiz-adv-x="483" 
d="M480 48q0 -9 -12 -17q-50 -34 -114 -42q1 -4 -2 -10l-23 -50q34 -6 50 -24t16 -50q0 -38 -33 -63t-98 -25q-27 0 -56 5t-44 13q-9 5 -11 8t1 10l21 53q3 7 8 7q4 0 10 -3q20 -10 43 -10q33 0 33 21q0 15 -12 20.5t-40 5.5h-17q-8 0 -10.5 4.5t0.5 11.5l27 68q3 10 8 12
q-65 16 -98.5 65.5t-33.5 125.5v158h-41q-28 0 -37.5 11t-9.5 38v39q0 27 9.5 38.5t37.5 11.5h41v25q0 24 11 48.5t32 59.5q10 17 18.5 22t30.5 5h59q28 0 39.5 -12t11.5 -38v-110h80q28 0 37.5 -11.5t9.5 -38.5v-39q0 -27 -9.5 -38t-37.5 -11h-80v-154q0 -31 12 -45.5
t39 -14.5q17 0 27.5 4t25.5 14q8 5 15 5q10 0 17 -12l42 -72q7 -12 7 -19z" />
    <glyph glyph-name="uni021B" unicode="&#x21b;" horiz-adv-x="483" 
d="M144 37.5q-51 52.5 -51 146.5v158h-41q-28 0 -37.5 11t-9.5 38v39q0 27 9.5 38.5t37.5 11.5h41v25q0 24 11 48.5t32 59.5q10 17 18.5 22t30.5 5h59q28 0 39.5 -12t11.5 -38v-110h80q28 0 37.5 -11.5t9.5 -38.5v-39q0 -27 -9.5 -38t-37.5 -11h-80v-154q0 -31 12 -45.5
t39 -14.5q17 0 27.5 4t25.5 14q8 5 15 5q10 0 17 -12l42 -72q7 -12 7 -19q0 -9 -12 -17q-34 -23 -76.5 -34.5t-100.5 -11.5q-96 0 -147 52.5zM152 -244q0 3 2 13l45 158q7 22 17 29.5t33 7.5h80q20 0 29 -5t9 -16q0 -10 -8 -29l-66 -155q-5 -12 -13.5 -17.5t-25.5 -5.5h-76
q-26 0 -26 20z" />
    <glyph glyph-name="uni1E97" unicode="&#x1e97;" horiz-adv-x="483" 
d="M55 698.5q-17 18.5 -17 45.5v25q0 27 17 45.5t44 18.5h27q27 0 44 -18.5t17 -45.5v-25q0 -27 -17 -45.5t-44 -18.5h-27q-27 0 -44 18.5zM269.5 698.5q-17.5 18.5 -17.5 45.5v25q0 27 17.5 45.5t43.5 18.5h27q27 0 44 -18.5t17 -45.5v-25q0 -27 -17 -45.5t-44 -18.5h-27
q-26 0 -43.5 18.5zM144 37.5q-51 52.5 -51 146.5v158h-41q-28 0 -37.5 11t-9.5 38v39q0 27 9.5 38.5t37.5 11.5h41v25q0 24 11 48.5t32 59.5q10 17 18.5 22t30.5 5h59q28 0 39.5 -12t11.5 -38v-110h80q28 0 37.5 -11.5t9.5 -38.5v-39q0 -27 -9.5 -38t-37.5 -11h-80v-154
q0 -31 12 -45.5t39 -14.5q17 0 27.5 4t25.5 14q8 5 15 5q10 0 17 -12l42 -72q7 -12 7 -19q0 -9 -12 -17q-34 -23 -76.5 -34.5t-100.5 -11.5q-96 0 -147 52.5z" />
    <glyph glyph-name="uni1E6D" unicode="&#x1e6d;" horiz-adv-x="483" 
d="M144 37.5q-51 52.5 -51 146.5v158h-41q-28 0 -37.5 11t-9.5 38v39q0 27 9.5 38.5t37.5 11.5h41v25q0 24 11 48.5t32 59.5q10 17 18.5 22t30.5 5h59q28 0 39.5 -12t11.5 -38v-110h80q28 0 37.5 -11.5t9.5 -38.5v-39q0 -27 -9.5 -38t-37.5 -11h-80v-154q0 -31 12 -45.5
t39 -14.5q17 0 27.5 4t25.5 14q8 5 15 5q10 0 17 -12l42 -72q7 -12 7 -19q0 -9 -12 -17q-34 -23 -76.5 -34.5t-100.5 -11.5q-96 0 -147 52.5zM211.5 -187.5q-17.5 18.5 -17.5 45.5v25q0 27 17.5 45.5t43.5 18.5h27q27 0 44 -18.5t17 -45.5v-25q0 -27 -17 -45.5t-44 -18.5
h-27q-26 0 -43.5 18.5z" />
    <glyph glyph-name="uni1E6F" unicode="&#x1e6f;" horiz-adv-x="483" 
d="M144 37.5q-51 52.5 -51 146.5v158h-41q-28 0 -37.5 11t-9.5 38v39q0 27 9.5 38.5t37.5 11.5h41v25q0 24 11 48.5t32 59.5q10 17 18.5 22t30.5 5h59q28 0 39.5 -12t11.5 -38v-110h80q28 0 37.5 -11.5t9.5 -38.5v-39q0 -27 -9.5 -38t-37.5 -11h-80v-154q0 -31 12 -45.5
t39 -14.5q17 0 27.5 4t25.5 14q8 5 15 5q10 0 17 -12l42 -72q7 -12 7 -19q0 -9 -12 -17q-34 -23 -76.5 -34.5t-100.5 -11.5q-96 0 -147 52.5zM86 -175.5q-10 11.5 -10 37.5v31q0 26 10 38t38 12h243q28 0 38.5 -12t10.5 -38v-31q0 -26 -10.5 -37.5t-38.5 -11.5h-243
q-28 0 -38 11.5z" />
    <glyph glyph-name="u" unicode="u" horiz-adv-x="603" 
d="M86.5 30.5q-48.5 45.5 -48.5 139.5v259q0 26 12 38.5t40 12.5h97q29 0 41 -12.5t12 -38.5v-251q0 -57 55 -57q30 0 46 16t16 45v247q0 26 12 38.5t41 12.5h97q29 0 41 -12.5t12 -38.5v-398q0 -19 -6.5 -25t-27.5 -6h-103q-12 0 -18.5 3t-7.5 12l-5 31q-29 -28 -72 -44.5
t-98 -16.5q-87 0 -135.5 45.5z" />
    <glyph glyph-name="uacute" unicode="&#xfa;" horiz-adv-x="603" 
d="M203 560q0 8 3 15l44 121q7 20 16.5 27t35.5 7h120q18 0 28.5 -6.5t10.5 -18.5q0 -11 -7 -22l-65 -115q-12 -20 -23 -26.5t-40 -6.5h-89q-34 0 -34 25zM86.5 30.5q-48.5 45.5 -48.5 139.5v259q0 26 12 38.5t40 12.5h97q29 0 41 -12.5t12 -38.5v-251q0 -57 55 -57
q30 0 46 16t16 45v247q0 26 12 38.5t41 12.5h97q29 0 41 -12.5t12 -38.5v-398q0 -19 -6.5 -25t-27.5 -6h-103q-12 0 -18.5 3t-7.5 12l-5 31q-29 -28 -72 -44.5t-98 -16.5q-87 0 -135.5 45.5z" />
    <glyph glyph-name="ubreve" unicode="&#x16d;" horiz-adv-x="602" 
d="M158.5 586q-48.5 48 -48.5 125q0 8 4.5 13t11.5 5h108q10 0 13.5 -4.5t3.5 -14.5q0 -49 48 -49t48 49q0 10 3.5 14.5t13.5 4.5h108q7 0 11.5 -5t4.5 -13q0 -77 -49 -125t-140 -48q-92 0 -140.5 48zM86.5 30.5q-48.5 45.5 -48.5 139.5v259q0 26 12 38.5t40 12.5h97
q29 0 41 -12.5t12 -38.5v-251q0 -57 55 -57q30 0 46 16t16 45v247q0 26 12 38.5t41 12.5h97q29 0 41 -12.5t12 -38.5v-398q0 -19 -6.5 -25t-27.5 -6h-103q-12 0 -18.5 3t-7.5 12l-5 31q-29 -28 -72 -44.5t-98 -16.5q-87 0 -135.5 45.5z" />
    <glyph glyph-name="uni01D4" unicode="&#x1d4;" horiz-adv-x="603" 
d="M216 540.5q-8 4.5 -22 21.5l-96 125q-12 17 -12 28q0 19 30 19h77q24 0 34.5 -5t20.5 -20l51 -77l50 77q10 15 20.5 20t34.5 5h77q30 0 30 -19q0 -11 -12 -28l-96 -125q-12 -17 -20.5 -21.5t-33.5 -4.5h-101q-24 0 -32 4.5zM86.5 30.5q-48.5 45.5 -48.5 139.5v259
q0 26 12 38.5t40 12.5h97q29 0 41 -12.5t12 -38.5v-251q0 -57 55 -57q30 0 46 16t16 45v247q0 26 12 38.5t41 12.5h97q29 0 41 -12.5t12 -38.5v-398q0 -19 -6.5 -25t-27.5 -6h-103q-12 0 -18.5 3t-7.5 12l-5 31q-29 -28 -72 -44.5t-98 -16.5q-87 0 -135.5 45.5z" />
    <glyph glyph-name="ucircumflex" unicode="&#xfb;" horiz-adv-x="623" 
d="M93.5 541.5q-8.5 5.5 -8.5 14.5q0 12 12 27l96 125q14 17 22 22t32 5h101q24 0 32.5 -5t21.5 -22l96 -125q12 -15 12 -27q0 -9 -8 -14.5t-23 -5.5h-75q-24 0 -35 5.5t-21 20.5l-50 77l-51 -77q-9 -15 -20 -20.5t-35 -5.5h-75q-15 0 -23.5 5.5zM86.5 30.5
q-48.5 45.5 -48.5 139.5v259q0 26 12 38.5t40 12.5h97q29 0 41 -12.5t12 -38.5v-251q0 -57 55 -57q30 0 46 16t16 45v247q0 26 12 38.5t41 12.5h97q29 0 41 -12.5t12 -38.5v-398q0 -19 -6.5 -25t-27.5 -6h-103q-12 0 -18.5 3t-7.5 12l-5 31q-29 -28 -72 -44.5t-98 -16.5
q-87 0 -135.5 45.5z" />
    <glyph glyph-name="udieresis" unicode="&#xfc;" horiz-adv-x="603" 
d="M131 533.5q-17 18.5 -17 45.5v25q0 27 17 45.5t44 18.5h27q27 0 44 -18.5t17 -45.5v-25q0 -27 -17 -45.5t-44 -18.5h-27q-27 0 -44 18.5zM345.5 533.5q-17.5 18.5 -17.5 45.5v25q0 27 17.5 45.5t43.5 18.5h27q27 0 44 -18.5t17 -45.5v-25q0 -27 -17 -45.5t-44 -18.5h-27
q-26 0 -43.5 18.5zM86.5 30.5q-48.5 45.5 -48.5 139.5v259q0 26 12 38.5t40 12.5h97q29 0 41 -12.5t12 -38.5v-251q0 -57 55 -57q30 0 46 16t16 45v247q0 26 12 38.5t41 12.5h97q29 0 41 -12.5t12 -38.5v-398q0 -19 -6.5 -25t-27.5 -6h-103q-12 0 -18.5 3t-7.5 12l-5 31
q-29 -28 -72 -44.5t-98 -16.5q-87 0 -135.5 45.5z" />
    <glyph glyph-name="uni01D8" unicode="&#x1d8;" horiz-adv-x="603" 
d="M249 727q0 8 3 15l32 87q6 19 13.5 25t28.5 6h67q29 0 29 -19q0 -10 -8 -24l-45 -80q-11 -19 -19 -24t-30 -5h-46q-25 0 -25 19zM139 554.5q-17 18.5 -17 45.5v25q0 27 17 45.5t44 18.5h27q27 0 44 -18.5t17 -45.5v-25q0 -27 -17 -45.5t-44 -18.5h-27q-27 0 -44 18.5z
M356 554.5q-17 18.5 -17 45.5v25q0 27 17 45.5t44 18.5h26q27 0 44 -18.5t17 -45.5v-25q0 -27 -17 -45.5t-44 -18.5h-26q-27 0 -44 18.5zM86.5 30.5q-48.5 45.5 -48.5 139.5v259q0 26 12 38.5t40 12.5h97q29 0 41 -12.5t12 -38.5v-251q0 -57 55 -57q30 0 46 16t16 45v247
q0 26 12 38.5t41 12.5h97q29 0 41 -12.5t12 -38.5v-398q0 -19 -6.5 -25t-27.5 -6h-103q-12 0 -18.5 3t-7.5 12l-5 31q-29 -28 -72 -44.5t-98 -16.5q-87 0 -135.5 45.5z" />
    </font>
</defs>
</svg>
